找回密码

蓝光电影网

查看: 2630|回复: 1

[传记] 圣女贞德/圣女贞德的故事 The.Messenger.The.Story.Of.Joan.Of.Arc.1999.1080p.BluRay.x264-TIMELORDS 10.94GB

[复制链接]
蓝光币
730
发表于 2018-9-4 09:41:29 | 显示全部楼层 |阅读模式

圣女贞德/圣女贞德的故事 The.Messenger.The.Story.Of.Joan.Of.Arc.1999.1080p.BluRay.x264-TIMELORDS 10.94GB-1.jpg
◎译  名 圣女贞德/圣女贞德的故事/卢贝松之圣女贞德
◎片  名 Jeanne d'Arc
◎年  代 1999
◎产  地 法国
◎类  别 列传/剧情/历史/战争
◎语  言 英语
◎上映日期 1999-10-27
◎豆瓣评分 7.4/10 from 21,917 users
◎豆瓣链接 https://movie.douban.com/subject/1297271/
◎片  长 158分钟
◎导  演 吕克·贝松 Luc Besson
◎主  演 米拉·乔沃维奇 Milla Jovovich
      达斯汀·霍夫曼 Dustin Hoffman
      费·唐纳薇 Faye Dunaway
      约翰·马尔科维奇 John Malkovich
      文森特·卡索 Vincent Cassel
      帕斯卡·格里高利 Pascal Greggory
      安德鲁·伯金 Andrew Birkin
      罗伯特·甘特 Robert Gant
      切基·卡尤 Tchéky Karyo
      John Frederick
      戴斯蒙德·哈灵顿 Desmond Harrington

◎简  介

  14世纪爆发的英法延续跨越百年,法国节节溃退,大部分河山都被英国占据了。就在这个时辰,珍妮(米拉?乔沃维奇 Milla Jovovich 饰)诞生在法国的穷乡僻壤中。年少起,珍妮就经常看到各类空想。一次,她看到空想并按照指示找到了一把剑,当她带着剑回抵家时发现家里已遭英军践踏。
  珍妮晓得是上天放置她来保卫法国。因而她向那时的皇太子查理(约翰?马尔科维奇 John Malkovich 饰)请求率领一支军队去抗击英军。穷途末路的查理答应了珍妮的请求。随后珍妮率领法军节节成功,查理亦顺遂即位。
  即位后的查理不再需要珍妮帮助,珍妮在今后的一次战役中堕入窘境但无人来救,她被英军捉住并带到了英国审批……

  1. Video
  2. ID                                       : 1
  3. Format                                   : AVC
  4. Format/Info                              : Advanced Video Codec
  5. Format profile                           : [url=/cdn-cgi/l/email-protection][email protected][/url]
  6. Format settings                          : CABAC / 5 Ref Frames
  7. Format settings, CABAC                   : Yes
  8. Format settings, ReFrames                : 5 frames
  9. Codec ID                                 : V_MPEG4/ISO/AVC
  10. Duration                                 : 2 h 38 min
  11. Bit rate                                 : 9 267 kb/s
  12. Width                                    : 1 920 pixels
  13. Height                                   : 800 pixels
  14. Display aspect ratio                     : 2.40:1
  15. Frame rate mode                          : Constant
  16. Frame rate                               : 23.976 FPS
  17. Color space                              : YUV
  18. Chroma subsampling                       : 4:2:0
  19. Bit depth                                : 8 bits
  20. Scan type                                : Progressive
  21. Bits/(Pixel*Frame)                       : 0.252
  22. Stream size                              : 10.0 GiB (92%)
  23. Title                                    : The Messenger: The story of Joan of Arc
  24. Writing library                          : x264 core 65 r1046 71d34b4
  25. Encoding settings                        : cabac=1 / ref=5 / deblock=1:0:0 / analyse=0x3:0x133 / me=umh / subme=7 / psy_rd=1.0:0.0 / mixed_ref=1 / me_range=16 / chroma_me=1 / trellis=1 / 8x8dct=1 / cqm=0 / deadzone=21,11 / chroma_qp_offset=-2 / threads=6 / nr=0 / decimate=1 / mbaff=0 / bframes=3 / b_pyramid=1 / b_adapt=1 / b_bias=0 / direct=1 / wpredb=1 / keyint=250 / keyint_min=25 / scenecut=40(pre) / rc=2pass / bitrate=9267 / ratetol=1.0 / qcomp=0.60 / qpmin=10 / qpmax=51 / qpstep=4 / cplxblur=20.0 / qblur=0.5 / ip_ratio=1.40 / pb_ratio=1.30 / aq=1:1.10
  26. Default                                  : Yes
  27. Forced                                   : No

  28. Audio
  29. ID                                       : 2
  30. Format                                   : AC-3
  31. Format/Info                              : Audio Coding 3
  32. Codec ID                                 : A_AC3
  33. Duration                                 : 2 h 38 min
  34. Bit rate mode                            : Constant
  35. Bit rate                                 : 640 kb/s
  36. Channel(s)                               : 6 channels
  37. Channel positions                        : Front: L C R, Side: L R, LFE
  38. Sampling rate                            : 48.0 kHz
  39. Frame rate                               : 31.250 FPS (1536 SPF)
  40. Bit depth                                : 16 bits
  41. Compression mode                         : Lossy
  42. Stream size                              : 723 MiB (6%)
  43. Title                                    : AC3
  44. Language                                 : English
  45. Service kind                             : Complete Main
  46. Default                                  : Yes
  47. Forced                                   : No

  48. Text #1
  49. ID                                       : 3
  50. Format                                   : UTF-8
  51. Codec ID                                 : S_TEXT/UTF8
  52. Codec ID/Info                            : UTF-8 Plain Text
  53. Title                                    : -
  54. Language                                 : English
  55. Default                                  : No
  56. Forced                                   : No

  57. Text #2
  58. ID                                       : 4
  59. Format                                   : UTF-8
  60. Codec ID                                 : S_TEXT/UTF8
  61. Codec ID/Info                            : UTF-8 Plain Text
  62. Language                                 : Dutch
  63. Default                                  : Yes
  64. Forced                                   : No
复制代码

复制代码

圣女贞德/圣女贞德的故事 The.Messenger.The.Story.Of.Joan.Of.Arc.1999.1080p.BluRay.x264-TIMELORDS 10.94GB-2.png 圣女贞德/圣女贞德的故事 The.Messenger.The.Story.Of.Joan.Of.Arc.1999.1080p.BluRay.x264-TIMELORDS 10.94GB-3.png 圣女贞德/圣女贞德的故事 The.Messenger.The.Story.Of.Joan.Of.Arc.1999.1080p.BluRay.x264-TIMELORDS 10.94GB-4.png






回复

使用道具 举报

蓝光币
779
发表于 2018-9-17 22:04:10 | 显示全部楼层
野战排/前进高棉
回复 支持 反对

使用道具 举报

懒得打字嘛,点击右侧快捷回复 【右侧内容,后台自定义】
您需要登录后才可以回帖 登录 | 立即加入

本版积分规则

Archiver|小黑屋| 蓝光电影网 |网站地图

Copyright © 2021 Comsenz Inc. Powered by 蓝光电影网

蓝光电影网

本站内容由用户自主分享和转载自互联网,转载目的在于传递更多信息,并不代表本网赞同其观点和对其真实性负责。

如有侵权、违反国家法律政策行为,请联系我们,我们会第一时间及时清除和处理!

举报反馈邮箱:[email protected]

快速回复 返回顶部 返回列表