找回密码

蓝光电影网

查看: 736|回复: 0

[喜剧] 理想之家/两个爸爸 Ideal.Home.2018.LiMiTED.720p.BluRay.x264-CADAVER 4.38GB

[复制链接]
蓝光币
623
发表于 2018-9-9 22:06:15 | 显示全部楼层 |阅读模式

理想之家/两个爸爸 Ideal.Home.2018.LiMiTED.720p.BluRay.x264-CADAVER 4.38GB-1.jpg
◎译  名 理想之家/两个爸爸(台)/理想家庭
◎片  名 Ideal Home
◎年  代 2018
◎产  地 美国
◎类  别 笑剧/同性
◎语  言 英语
◎上映日期 2018-02-15(同性恋狂欢电影节)/2018-06-29(美国部分上映)
◎豆瓣评分 6.3/10 from 550 users
◎豆瓣链接 https://movie.douban.com/subject/26726817/
◎片  长 91分钟
◎导  演 安德鲁·弗莱明 Andrew Fleming
◎主  演 保罗·路德 Paul Rudd
      凯特·沃什 Kate Walsh
      艾丽森·皮尔 Alison Pill
      杰克·麦克道曼 Jake McDorman
      史蒂夫·库根 Steve Coogan
      洛拉·玛汀内斯-康宁安 Lora Martinez-Cunningham
      萨拉·明妮奇 Sarah Minnich
      杰克·戈尔 Jack Gore
      杰西·卢肯 Jesse Luken
      弗兰西斯·李·麦克凯恩 Frances Lee McCain
      斯塔福德·道格拉斯 Stafford Douglas
      Cassandra Rochelle Fetters
      玛丽·瓦根曼 Marie Wagenman
      德鲁·德勒格 Drew Droege
      埃文·比当古 Evan Bittencourt
      理查德·比尔 Richard Beal
      J. Nathan Simmons
      Mike Miller

◎简  介

  保罗·路德联手史蒂夫·库根出演笑剧《理想之家》(An Ideal Home,暂译)。二人饰演一对共组家庭的同性朋友,一个亲戚的忽然到访打破了他们安静的生活。

  1. Video
  2. ID                                       : 1
  3. Format                                   : AVC
  4. Format/Info                              : Advanced Video Codec
  5. Format profile                           : [url=/cdn-cgi/l/email-protection][email protected][/url]
  6. Format settings                          : CABAC / 5 Ref Frames
  7. Format settings, CABAC                   : Yes
  8. Format settings, RefFrames               : 5 frames
  9. Codec ID                                 : V_MPEG4/ISO/AVC
  10. Duration                                 : 1 h 31 min
  11. Bit rate                                 : 5 343 kb/s
  12. Width                                    : 1 280 pixels
  13. Height                                   : 536 pixels
  14. Display aspect ratio                     : 2.40:1
  15. Frame rate mode                          : Constant
  16. Frame rate                               : 23.976 (24000/1001) FPS
  17. Color space                              : YUV
  18. Chroma subsampling                       : 4:2:0
  19. Bit depth                                : 8 bits
  20. Scan type                                : Progressive
  21. Bits/(Pixel*Frame)                       : 0.325
  22. Stream size                              : 3.41 GiB (78%)
  23. Writing library                          : x264 core 155 r2901 7d0ff22
  24. Encoding settings                        : cabac=1 / ref=5 / deblock=1:-3:-3 / analyse=0x3:0x133 / me=umh / subme=8 / psy=1 / psy_rd=1.00:0.00 / mixed_ref=1 / me_range=16 / chroma_me=1 / trellis=1 / 8x8dct=1 / cqm=0 / deadzone=21,11 / fast_pskip=0 / chroma_qp_offset=-2 / threads=17 / lookahead_threads=2 / sliced_threads=0 / nr=0 / decimate=1 / interlaced=0 / bluray_compat=0 / constrained_intra=0 / bframes=3 / b_pyramid=2 / b_adapt=1 / b_bias=0 / direct=3 / weightb=1 / open_gop=0 / weightp=2 / keyint=250 / keyint_min=23 / scenecut=40 / intra_refresh=0 / rc_lookahead=50 / rc=2pass / mbtree=1 / bitrate=5343 / ratetol=1.0 / qcomp=0.60 / qpmin=0 / qpmax=69 / qpstep=4 / cplxblur=20.0 / qblur=0.5 / vbv_maxrate=62500 / vbv_bufsize=78125 / nal_hrd=none / filler=0 / ip_ratio=1.40 / aq=1:1.00
  25. Default                                  : Yes
  26. Forced                                   : No

  27. Audio
  28. ID                                       : 2
  29. Format                                   : DTS
  30. Format/Info                              : Digital Theater Systems
  31. Mode                                     : 16
  32. Format settings, Endianness              : Big
  33. Codec ID                                 : A_DTS
  34. Duration                                 : 1 h 31 min
  35. Bit rate mode                            : Constant
  36. Bit rate                                 : 1 509 kb/s
  37. Channel(s)                               : 6 channels
  38. Channel positions                        : Front: L C R, Side: L R, LFE
  39. Sampling rate                            : 48.0 kHz
  40. Frame rate                               : 93.750 FPS (512 SPF)
  41. Bit depth                                : 24 bits
  42. Compression mode                         : Lossy
  43. Stream size                              : 986 MiB (22%)
  44. Language                                 : English
  45. Default                                  : Yes
  46. Forced                                   : No

  47. Menu
  48. 00:00:00.000                             : en:00:00:00.000
  49. 00:04:31.354                             : en:00:04:31.354
  50. 00:08:21.584                             : en:00:08:21.584
  51. 00:14:31.829                             : en:00:14:31.829
  52. 00:19:21.577                             : en:00:19:21.577
  53. 00:23:11.557                             : en:00:23:11.557
  54. 00:28:10.314                             : en:00:28:10.314
  55. 00:33:56.201                             : en:00:33:56.201
  56. 00:37:57.609                             : en:00:37:57.609
  57. 00:43:32.944                             : en:00:43:32.944
  58. 00:50:22.394                             : en:00:50:22.394
  59. 00:57:07.591                             : en:00:57:07.591
  60. 01:03:27.178                             : en:01:03:27.178
  61. 01:09:52.438                             : en:01:09:52.438
  62. 01:14:19.372                             : en:01:14:19.372
  63. 01:21:59.665                             : en:01:21:59.665
复制代码

复制代码

理想之家/两个爸爸 Ideal.Home.2018.LiMiTED.720p.BluRay.x264-CADAVER 4.38GB-2.jpg






回复

使用道具 举报

懒得打字嘛,点击右侧快捷回复 【右侧内容,后台自定义】
您需要登录后才可以回帖 登录 | 立即加入

本版积分规则

Archiver|小黑屋| 蓝光电影网 |网站地图

Copyright © 2021 Comsenz Inc. Powered by 蓝光电影网

蓝光电影网

本站内容由用户自主分享和转载自互联网,转载目的在于传递更多信息,并不代表本网赞同其观点和对其真实性负责。

如有侵权、违反国家法律政策行为,请联系我们,我们会第一时间及时清除和处理!

举报反馈邮箱:[email protected]

快速回复 返回顶部 返回列表