找回密码

蓝光电影网

查看: 522|回复: 0

[剧情] 来自纽约的女孩 Smithereens.1982.720p.BluRay.x264-SPOOKS 4.38GB

[复制链接]
蓝光币
623
发表于 2018-9-9 22:28:05 | 显示全部楼层 |阅读模式

来自纽约的女孩 Smithereens.1982.720p.BluRay.x264-SPOOKS 4.38GB-1.jpg
◎译  名 来自纽约的女孩
◎片  名 Smithereens
◎年  代 1982
◎产  地 美国
◎类  别 剧情/音乐
◎语  言 英语
◎上映日期 1982-09-11
◎豆瓣评分 /10 from 0 users
◎豆瓣链接 https://movie.douban.com/subject/1433167/
◎片  长 89 分钟
◎导  演 苏珊·塞德尔曼 Susan Seidelman
◎主  演 苏珊·伯曼 Susan Berman
      Brad Rijn
      理查德·黑尔 Richard Hell

◎简  介

  None

◎获奖情况

  第35届戛纳电影节  (1982)
  主比赛单元 金棕榈奖(提名) 苏珊·塞德尔曼

  1. Video
  2. ID                                       : 1
  3. Format                                   : AVC
  4. Format/Info                              : Advanced Video Codec
  5. Format profile                           : [url=/cdn-cgi/l/email-protection][email protected][/url]
  6. Format settings                          : CABAC / 5 Ref Frames
  7. Format settings, CABAC                   : Yes
  8. Format settings, RefFrames               : 5 frames
  9. Codec ID                                 : V_MPEG4/ISO/AVC
  10. Duration                                 : 1 h 33 min
  11. Bit rate                                 : 6 049 kb/s
  12. Width                                    : 1 200 pixels
  13. Height                                   : 720 pixels
  14. Display aspect ratio                     : 5:3
  15. Frame rate mode                          : Constant
  16. Frame rate                               : 23.976 (24000/1001) FPS
  17. Color space                              : YUV
  18. Chroma subsampling                       : 4:2:0
  19. Bit depth                                : 8 bits
  20. Scan type                                : Progressive
  21. Bits/(Pixel*Frame)                       : 0.292
  22. Stream size                              : 3.95 GiB (90%)
  23. Writing library                          : x264 core 157 r2932 303c484
  24. Encoding settings                        : cabac=1 / ref=5 / deblock=1:-3:-3 / analyse=0x3:0x133 / me=umh / subme=8 / psy=1 / psy_rd=1.00:0.00 / mixed_ref=1 / me_range=16 / chroma_me=1 / trellis=1 / 8x8dct=1 / cqm=0 / deadzone=21,11 / fast_pskip=0 / chroma_qp_offset=-2 / threads=22 / lookahead_threads=3 / sliced_threads=0 / nr=0 / decimate=1 / interlaced=0 / bluray_compat=0 / constrained_intra=0 / bframes=3 / b_pyramid=2 / b_adapt=1 / b_bias=0 / direct=3 / weightb=1 / open_gop=0 / weightp=2 / keyint=250 / keyint_min=23 / scenecut=40 / intra_refresh=0 / rc_lookahead=50 / rc=2pass / mbtree=1 / bitrate=6049 / ratetol=1.0 / qcomp=0.60 / qpmin=0 / qpmax=69 / qpstep=4 / cplxblur=20.0 / qblur=0.5 / vbv_maxrate=62500 / vbv_bufsize=78125 / nal_hrd=none / filler=0 / ip_ratio=1.40 / aq=1:1.00
  25. Default                                  : Yes
  26. Forced                                   : No

  27. Audio
  28. ID                                       : 2
  29. Format                                   : AC-3
  30. Format/Info                              : Audio Coding 3
  31. Format settings, Endianness              : Big
  32. Codec ID                                 : A_AC3
  33. Duration                                 : 1 h 33 min
  34. Bit rate mode                            : Constant
  35. Bit rate                                 : 640 kb/s
  36. Channel(s)                               : 1 channel
  37. Channel positions                        : Front: C
  38. Sampling rate                            : 48.0 kHz
  39. Frame rate                               : 31.250 FPS (1536 SPF)
  40. Bit depth                                : 16 bits
  41. Compression mode                         : Lossy
  42. Stream size                              : 428 MiB (10%)
  43. Language                                 : English
  44. Service kind                             : Complete Main
  45. Default                                  : Yes
  46. Forced                                   : No

  47. Menu
  48. 00:00:00.000                             : en:00:00:00.000
  49. 00:07:24.444                             : en:00:07:24.444
  50. 00:13:01.072                             : en:00:13:01.072
  51. 00:17:06.609                             : en:00:17:06.609
  52. 00:24:27.508                             : en:00:24:27.508
  53. 00:27:41.577                             : en:00:27:41.577
  54. 00:34:32.320                             : en:00:34:32.320
  55. 00:39:43.256                             : en:00:39:43.256
  56. 00:46:09.767                             : en:00:46:09.767
  57. 00:58:07.025                             : en:00:58:07.025
  58. 01:07:06.272                             : en:01:07:06.272
  59. 01:10:35.022                             : en:01:10:35.022
  60. 01:19:39.608                             : en:01:19:39.608
  61. 01:27:43.258                             : en:01:27:43.258
复制代码

复制代码

来自纽约的女孩 Smithereens.1982.720p.BluRay.x264-SPOOKS 4.38GB-2.jpg






回复

使用道具 举报

懒得打字嘛,点击右侧快捷回复 【右侧内容,后台自定义】
您需要登录后才可以回帖 登录 | 立即加入

本版积分规则

Archiver|小黑屋| 蓝光电影网 |网站地图

Copyright © 2021 Comsenz Inc. Powered by 蓝光电影网

蓝光电影网

本站内容由用户自主分享和转载自互联网,转载目的在于传递更多信息,并不代表本网赞同其观点和对其真实性负责。

如有侵权、违反国家法律政策行为,请联系我们,我们会第一时间及时清除和处理!

举报反馈邮箱:[email protected]

快速回复 返回顶部 返回列表