找回密码

蓝光电影网

查看: 1258|回复: 4

瞒天过海:美人计/女版十一罗汉 Oceans.Eight.2018.2160p.BluRay.x265.10bit.SDR.DTS-HD.MA.TrueHD.7.1.Atmos-SWTYBLZ 34.57GB

[复制链接]
蓝光币
623
发表于 2018-9-9 23:09:37 | 显示全部楼层 |阅读模式

瞒天过海:美人计/女版十一罗汉 Oceans.Eight.2018.2160p.BluRay.x265.10bit.SDR.DTS-HD.MA.TrueHD.7.1.Atmos-SWTYBLZ 34.57GB-1.jpg
◎译  名 瞒天过海:美人计/女版十一罗汉/瞒天过海:八面玲珑(台)/盗海豪情:8美千娇(港)/八罗汉/八大罗汉/侠盗英姿/盗海姐妹团
◎片  名 Ocean's Eight
◎年  代 2018
◎产  地 美国
◎类  别 笑剧/犯罪
◎语  言 英语/德语/法语/汉语普通话
◎上映日期 2018-06-08(美国)
◎豆瓣评分 6.8/10 from 59,563 users
◎豆瓣链接 https://movie.douban.com/subject/26654269/
◎片  长 110分钟
◎导  演 盖瑞·罗斯 Gary Ross
◎主  演 桑德拉·布洛克 Sandra Bullock
      凯特·布兰切特 Cate Blanchett
      安妮·海瑟薇 Anne Hathaway
      海伦娜·伯翰·卡特 Helena Bonham Carter
      蕾哈娜 Rihanna
      莎拉·保罗森 Sarah Paulson
      敏迪·卡灵 Mindy Kaling
      奥卡菲娜 Awkwafina
      詹姆斯·柯登 James Corden
      理查德·阿米蒂奇 Richard Armitage
      格里芬·邓恩 Griffin Dunne
      迪德尔·古德温 Deidre Goodwin
      丹尼埃拉·拉贝尼 Daniella Rabbani
      埃利奥特·古尔德 Elliott Gould
      夏洛特·柯克 Charlotte Kirk
      达科塔·范宁 Dakota Fanning
      理查德·罗比查乌克斯 Richard Robichaux
      达米安·杨 Damian Young
      戈登·格里克 Gideon Glick
      凯特琳·梅纳 Caitlin Mehner
      詹姆斯·比贝里 James Biberi
      香农·弗雷尔 Shannon Freyer
      康纳尔·多诺万 Conor Donovan
      凯文·布朗 Kevin Brown
      马尔洛·托马斯 Marlo Thomas
      丹娜·爱薇 Dana Ivey
      玛丽·路易丝·威尔逊 Mary Louise Wilson
      伊丽莎白·阿什利 Elizabeth Ashley
      凯蒂·霍尔姆斯 Katie Holmes
      肯多尔·詹纳 Kendall Jenner
      凯莉·詹娜 Kylie Jenner
      金·卡戴珊 Kim Kardashian

◎简  介

  桑德拉·布洛克饰演的Debbie Ocean是《十一罗汉》团体头子乔治·克鲁尼饰演的Danny Ocean的妹妹,曾因偷盗入狱服刑。而黛比刚一出狱就策划惊天大案,与凯特·布兰切特饰演的好友一路收罗顶尖高手,预备在一年一度的时髦盛会Met Gala(纽约大城市艺术博物馆慈善舞会)上窃取由安妮·海瑟薇饰演的大明星所佩戴,代价一亿五万万美金的卡地亚钻石项链。

  1. Video
  2. ID                                       : 1
  3. Format                                   : HEVC
  4. Format/Info                              : High Efficiency Video Coding
  5. Format profile                           : Main [url=/cdn-cgi/l/email-protection][email protected][/url]@High
  6. Codec ID                                 : V_MPEGH/ISO/HEVC
  7. Duration                                 : 1 h 50 min
  8. Bit rate                                 : 36.9 Mb/s
  9. Width                                    : 3 840 pixels
  10. Height                                   : 1 608 pixels
  11. Display aspect ratio                     : 2.40:1
  12. Frame rate mode                          : Constant
  13. Frame rate                               : 23.976 (24000/1001) FPS
  14. Color space                              : YUV
  15. Chroma subsampling                       : 4:2:0
  16. Bit depth                                : 10 bits
  17. Bits/(Pixel*Frame)                       : 0.249
  18. Stream size                              : 28.4 GiB (83%)
  19. Title                                    : Oceans.Eight.2018.2160p.BluRay.x265.10bit.SDR.DTS-HD.MA.TrueHD.7.1.Atmos-SWTYBLZ
  20. Writing library                          : x265 2.8+54-79c76e42cb28:[Windows][GCC 7.3.1][64 bit] 10bit
  21. Encoding settings                        : cpuid=1111039 / frame-threads=16 / numa-pools=20 / wpp / no-pmode / no-pme / no-psnr / no-ssim / log-level=2 / input-csp=1 / input-res=3840x1608 / interlace=0 / total-frames=0 / level-idc=51 / high-tier=1 / uhd-bd=0 / ref=3 / no-allow-non-conformance / repeat-headers / annexb / aud / hrd / info / hash=0 / no-temporal-layers / no-open-gop / min-keyint=1 / keyint=24 / gop-lookahead=0 / bframes=4 / b-adapt=2 / b-pyramid / bframe-bias=0 / rc-lookahead=25 / lookahead-slices=4 / scenecut=40 / radl=0 / no-intra-refresh / ctu=64 / min-cu-size=8 / no-rect / no-amp / max-tu-size=32 / tu-inter-depth=1 / tu-intra-depth=1 / limit-tu=0 / rdoq-level=0 / dynamic-rd=0.00 / no-ssim-rd / signhide / no-tskip / nr-intra=0 / nr-inter=0 / no-constrained-intra / strong-intra-smoothing / max-merge=2 / limit-refs=3 / no-limit-modes / me=1 / subme=2 / merange=57 / temporal-mvp / weightp / no-weightb / no-analyze-src-pics / deblock=0:0 / no-sao / no-sao-non-deblock / rd=3 / no-early-skip / rskip / no-fast-intra / no-tskip-fast / no-cu-lossless / no-b-intra / no-splitrd-skip / rdpenalty=0 / psy-rd=2.00 / psy-rdoq=0.00 / no-rd-refine / no-lossless / cbqpoffs=0 / crqpoffs=0 / rc=crf / crf=16.0 / qcomp=0.60 / qpstep=4 / stats-write=0 / stats-read=0 / vbv-maxrate=160000 / vbv-bufsize=160000 / vbv-init=0.9 / crf-max=0.0 / crf-min=0.0 / ipratio=1.40 / pbratio=1.30 / aq-mode=1 / aq-strength=1.00 / cutree / zone-count=0 / no-strict-cbr / qg-size=32 / no-rc-grain / qpmax=69 / qpmin=0 / no-const-vbv / sar=1 / overscan=0 / videoformat=5 / range=0 / colorprim=2 / transfer=2 / colormatrix=2 / chromaloc=0 / display-window=0 / max-cll=0,0 / min-luma=0 / max-luma=1023 / log2-max-poc-lsb=8 / vui-timing-info / vui-hrd-info / slices=1 / opt-qp-pps / opt-ref-list-length-pps / no-multi-pass-opt-rps / scenecut-bias=0.05 / no-opt-cu-delta-qp / no-aq-motion / no-hdr / no-hdr-opt / no-dhdr10-opt / no-idr-recovery-sei / analysis-reuse-level=5 / scale-factor=0 / refine-intra=0 / refine-inter=0 / refine-mv=0 / no-limit-sao / ctu-info=0 / no-lowpass-dct / refine-mv-type=0 / copy-pic=1 / max-ausize-factor=1.0 / no-dynamic-refine / no-single-sei
  22. Default                                  : Yes
  23. Forced                                   : No

  24. Audio #1
  25. ID                                       : 2
  26. Format                                   : TrueHD
  27. Format profile                           : TrueHD+Atmos / TrueHD
  28. Codec ID                                 : A_TRUEHD
  29. Duration                                 : 1 h 50 min
  30. Bit rate mode                            : Variable
  31. Bit rate                                 : 2 782 kb/s
  32. Maximum bit rate                         : 4 275 kb/s
  33. Channel(s)                               : Object Based / 8 channels
  34. Channel positions                        : Object Based / Front: L C R, Side: L R, Back: L R, LFE
  35. Sampling rate                            :  / 48.0 kHz
  36. Frame rate                               : 1 200.000 FPS (40 SPF)
  37. Compression mode                         : Lossless
  38. Stream size                              : 2.14 GiB (6%)
  39. Title                                    : Oceans.Eight.2018.2160p.BluRay.x265.10bit.SDR.DTS-HD.MA.TrueHD.7.1.Atmos-SWTYBLZ
  40. Language                                 : English
  41. Default                                  : Yes
  42. Forced                                   : No

  43. Audio #2
  44. ID                                       : 3
  45. Format                                   : DTS
  46. Format/Info                              : Digital Theater Systems
  47. Format profile                           : MA / Core
  48. Codec ID                                 : A_DTS
  49. Duration                                 : 1 h 50 min
  50. Bit rate mode                            : Variable / Constant
  51. Bit rate                                 : 4 034 kb/s / 1 509 kb/s
  52. Channel(s)                               : 8 channels / 6 channels
  53. Channel positions                        : Front: L C R, Side: L R, Back: L R, LFE / Front: L C R, Side: L R, LFE
  54. Sampling rate                            : 48.0 kHz
  55. Frame rate                               : 93.750 FPS (512 SPF)
  56. Bit depth                                : 24 bits
  57. Compression mode                         : Lossless / Lossy
  58. Stream size                              : 3.10 GiB (9%)
  59. Title                                    : Oceans.Eight.2018.2160p.BluRay.x265.10bit.SDR.DTS-HD.MA.TrueHD.7.1.Atmos-SWTYBLZ
  60. Language                                 : English
  61. Default                                  : No
  62. Forced                                   : No

  63. Audio #3
  64. ID                                       : 4
  65. Format                                   : AC-3
  66. Format/Info                              : Audio Coding 3
  67. Codec ID                                 : A_AC3
  68. Duration                                 : 1 h 50 min
  69. Bit rate mode                            : Constant
  70. Bit rate                                 : 640 kb/s
  71. Channel(s)                               : 6 channels
  72. Channel positions                        : Front: L C R, Side: L R, LFE
  73. Sampling rate                            : 48.0 kHz
  74. Frame rate                               : 31.250 FPS (1536 SPF)
  75. Bit depth                                : 16 bits
  76. Compression mode                         : Lossy
  77. Stream size                              : 504 MiB (1%)
  78. Title                                    : Oceans.Eight.2018.2160p.BluRay.x265.10bit.SDR.DTS-HD.MA.TrueHD.7.1.Atmos-SWTYBLZ
  79. Language                                 : English
  80. Service kind                             : Complete Main
  81. Default                                  : No
  82. Forced                                   : No

  83. Text #1
  84. ID                                       : 5
  85. Format                                   : UTF-8
  86. Codec ID                                 : S_TEXT/UTF8
  87. Codec ID/Info                            : UTF-8 Plain Text
  88. Duration                                 : 1 h 43 min
  89. Bit rate                                 : 64 b/s
  90. Count of elements                        : 1596
  91. Stream size                              : 48.9 KiB (0%)
  92. Title                                    : English-SRT
  93. Language                                 : English
  94. Default                                  : Yes
  95. Forced                                   : No

  96. Text #2
  97. ID                                       : 6
  98. Format                                   : PGS
  99. Muxing mode                              : zlib
  100. Codec ID                                 : S_HDMV/PGS
  101. Codec ID/Info                            : Picture based subtitle format used on BDs/HD-DVDs
  102. Duration                                 : 1 h 49 min
  103. Bit rate                                 : 40.1 kb/s
  104. Count of elements                        : 3526
  105. Stream size                              : 31.4 MiB (0%)
  106. Title                                    : English-PGS
  107. Language                                 : English
  108. Default                                  : No
  109. Forced                                   : No

  110. Text #3
  111. ID                                       : 7
  112. Format                                   : PGS
  113. Muxing mode                              : zlib
  114. Codec ID                                 : S_HDMV/PGS
  115. Codec ID/Info                            : Picture based subtitle format used on BDs/HD-DVDs
  116. Duration                                 : 1 h 49 min
  117. Bit rate                                 : 30.6 kb/s
  118. Count of elements                        : 2952
  119. Stream size                              : 24.0 MiB (0%)
  120. Title                                    : French-PGS
  121. Language                                 : French
  122. Default                                  : No
  123. Forced                                   : No

  124. Text #4
  125. ID                                       : 8
  126. Format                                   : PGS
  127. Muxing mode                              : zlib
  128. Codec ID                                 : S_HDMV/PGS
  129. Codec ID/Info                            : Picture based subtitle format used on BDs/HD-DVDs
  130. Duration                                 : 1 h 49 min
  131. Bit rate                                 : 34.9 kb/s
  132. Count of elements                        : 3696
  133. Stream size                              : 27.3 MiB (0%)
  134. Title                                    : Italian-PGS
  135. Language                                 : Italian
  136. Default                                  : No
  137. Forced                                   : No

  138. Text #5
  139. ID                                       : 9
  140. Format                                   : PGS
  141. Muxing mode                              : zlib
  142. Codec ID                                 : S_HDMV/PGS
  143. Codec ID/Info                            : Picture based subtitle format used on BDs/HD-DVDs
  144. Duration                                 : 1 h 49 min
  145. Bit rate                                 : 32.7 kb/s
  146. Count of elements                        : 3224
  147. Stream size                              : 25.6 MiB (0%)
  148. Title                                    : Spanish-PGS
  149. Language                                 : Spanish
  150. Default                                  : No
  151. Forced                                   : No

  152. Text #6
  153. ID                                       : 10
  154. Format                                   : PGS
  155. Muxing mode                              : zlib
  156. Codec ID                                 : S_HDMV/PGS
  157. Codec ID/Info                            : Picture based subtitle format used on BDs/HD-DVDs
  158. Duration                                 : 1 h 49 min
  159. Bit rate                                 : 32.2 kb/s
  160. Count of elements                        : 3100
  161. Stream size                              : 25.2 MiB (0%)
  162. Title                                    : Chinese-PGS
  163. Language                                 : Chinese
  164. Default                                  : No
  165. Forced                                   : No

  166. Text #7
  167. ID                                       : 11
  168. Format                                   : PGS
  169. Muxing mode                              : zlib
  170. Codec ID                                 : S_HDMV/PGS
  171. Codec ID/Info                            : Picture based subtitle format used on BDs/HD-DVDs
  172. Duration                                 : 1 h 49 min
  173. Bit rate                                 : 37.7 kb/s
  174. Count of elements                        : 3338
  175. Stream size                              : 29.6 MiB (0%)
  176. Title                                    : Chinese-PGS
  177. Language                                 : Chinese
  178. Default                                  : No
  179. Forced                                   : No

  180. Text #8
  181. ID                                       : 12
  182. Format                                   : PGS
  183. Muxing mode                              : zlib
  184. Codec ID                                 : S_HDMV/PGS
  185. Codec ID/Info                            : Picture based subtitle format used on BDs/HD-DVDs
  186. Duration                                 : 1 h 49 min
  187. Bit rate                                 : 30.9 kb/s
  188. Count of elements                        : 3312
  189. Stream size                              : 24.2 MiB (0%)
  190. Title                                    : Chinese-PGS
  191. Language                                 : Chinese
  192. Default                                  : No
  193. Forced                                   : No

  194. Text #9
  195. ID                                       : 13
  196. Format                                   : PGS
  197. Muxing mode                              : zlib
  198. Codec ID                                 : S_HDMV/PGS
  199. Codec ID/Info                            : Picture based subtitle format used on BDs/HD-DVDs
  200. Duration                                 : 1 h 49 min
  201. Bit rate                                 : 20.1 kb/s
  202. Count of elements                        : 3264
  203. Stream size                              : 15.7 MiB (0%)
  204. Title                                    : Korean-PGS
  205. Language                                 : Korean
  206. Default                                  : No
  207. Forced                                   : No

  208. Text #10
  209. ID                                       : 14
  210. Format                                   : PGS
  211. Muxing mode                              : zlib
  212. Codec ID                                 : S_HDMV/PGS
  213. Codec ID/Info                            : Picture based subtitle format used on BDs/HD-DVDs
  214. Duration                                 : 1 h 49 min
  215. Bit rate                                 : 33.0 kb/s
  216. Count of elements                        : 3284
  217. Stream size                              : 25.8 MiB (0%)
  218. Title                                    : Spanish-PGS
  219. Language                                 : Spanish
  220. Default                                  : No
  221. Forced                                   : No

  222. Text #11
  223. ID                                       : 15
  224. Format                                   : PGS
  225. Muxing mode                              : zlib
  226. Codec ID                                 : S_HDMV/PGS
  227. Codec ID/Info                            : Picture based subtitle format used on BDs/HD-DVDs
  228. Duration                                 : 1 h 49 min
  229. Bit rate                                 : 33.7 kb/s
  230. Count of elements                        : 3292
  231. Stream size                              : 26.4 MiB (0%)
  232. Title                                    : Portuguese-PGS
  233. Language                                 : Portuguese
  234. Default                                  : No
  235. Forced                                   : No

  236. Text #12
  237. ID                                       : 16
  238. Format                                   : PGS
  239. Muxing mode                              : zlib
  240. Codec ID                                 : S_HDMV/PGS
  241. Codec ID/Info                            : Picture based subtitle format used on BDs/HD-DVDs
  242. Duration                                 : 1 h 49 min
  243. Bit rate                                 : 20.9 kb/s
  244. Count of elements                        : 3360
  245. Stream size                              : 16.3 MiB (0%)
  246. Title                                    : Arabic-PGS
  247. Language                                 : Arabic
  248. Default                                  : No
  249. Forced                                   : No

  250. Text #13
  251. ID                                       : 17
  252. Format                                   : PGS
  253. Muxing mode                              : zlib
  254. Codec ID                                 : S_HDMV/PGS
  255. Codec ID/Info                            : Picture based subtitle format used on BDs/HD-DVDs
  256. Duration                                 : 1 h 49 min
  257. Bit rate                                 : 30.5 kb/s
  258. Count of elements                        : 2150
  259. Stream size                              : 23.9 MiB (0%)
  260. Title                                    : Danish-PGS
  261. Language                                 : Danish
  262. Default                                  : No
  263. Forced                                   : No

  264. Text #14
  265. ID                                       : 18
  266. Format                                   : PGS
  267. Muxing mode                              : zlib
  268. Codec ID                                 : S_HDMV/PGS
  269. Codec ID/Info                            : Picture based subtitle format used on BDs/HD-DVDs
  270. Duration                                 : 1 h 49 min
  271. Bit rate                                 : 34.1 kb/s
  272. Count of elements                        : 3298
  273. Stream size                              : 26.7 MiB (0%)
  274. Title                                    : Finnish-PGS
  275. Language                                 : Finnish
  276. Default                                  : No
  277. Forced                                   : No

  278. Text #15
  279. ID                                       : 19
  280. Format                                   : PGS
  281. Muxing mode                              : zlib
  282. Codec ID                                 : S_HDMV/PGS
  283. Codec ID/Info                            : Picture based subtitle format used on BDs/HD-DVDs
  284. Duration                                 : 1 h 49 min
  285. Bit rate                                 : 29.5 kb/s
  286. Count of elements                        : 2504
  287. Stream size                              : 23.1 MiB (0%)
  288. Title                                    : Norwegian-PGS
  289. Language                                 : Norwegian
  290. Default                                  : No
  291. Forced                                   : No

  292. Text #16
  293. ID                                       : 20
  294. Format                                   : PGS
  295. Muxing mode                              : zlib
  296. Codec ID                                 : S_HDMV/PGS
  297. Codec ID/Info                            : Picture based subtitle format used on BDs/HD-DVDs
  298. Duration                                 : 1 h 49 min
  299. Bit rate                                 : 36.5 kb/s
  300. Count of elements                        : 2764
  301. Stream size                              : 28.6 MiB (0%)
  302. Title                                    : Russian-PGS
  303. Language                                 : Russian
  304. Default                                  : No
  305. Forced                                   : No

  306. Text #17
  307. ID                                       : 21
  308. Format                                   : PGS
  309. Muxing mode                              : zlib
  310. Codec ID                                 : S_HDMV/PGS
  311. Codec ID/Info                            : Picture based subtitle format used on BDs/HD-DVDs
  312. Duration                                 : 1 h 49 min
  313. Bit rate                                 : 32.4 kb/s
  314. Count of elements                        : 3264
  315. Stream size                              : 25.3 MiB (0%)
  316. Title                                    : Swedish-PGS
  317. Language                                 : Swedish
  318. Default                                  : No
  319. Forced                                   : No

  320. Text #18
  321. ID                                       : 22
  322. Format                                   : PGS
  323. Muxing mode                              : zlib
  324. Codec ID                                 : S_HDMV/PGS
  325. Codec ID/Info                            : Picture based subtitle format used on BDs/HD-DVDs
  326. Duration                                 : 1 h 49 min
  327. Bit rate                                 : 32.3 kb/s
  328. Count of elements                        : 3306
  329. Stream size                              : 25.3 MiB (0%)
  330. Title                                    : Thai-PGS
  331. Language                                 : Thai
  332. Default                                  : No
  333. Forced                                   : No

  334. Menu
  335. 00:00:00.000                             : :Chapter 1
  336. 00:11:18.260                             : :Chapter 2
  337. 00:20:06.747                             : :Chapter 3
  338. 00:31:37.103                             : :Chapter 4
  339. 00:41:29.612                             : :Chapter 5
  340. 00:49:18.914                             : :Chapter 6
  341. 00:56:22.295                             : :Chapter 7
  342. 01:05:50.071                             : :Chapter 8
  343. 01:16:32.546                             : :Chapter 9
  344. 01:27:01.174                             : :Chapter 10
  345. 01:35:42.153                             : :Chapter 11
  346. 01:44:08.659                             : :Chapter 12
复制代码

复制代码

瞒天过海:美人计/女版十一罗汉 Oceans.Eight.2018.2160p.BluRay.x265.10bit.SDR.DTS-HD.MA.TrueHD.7.1.Atmos-SWTYBLZ 34.57GB-2.png 瞒天过海:美人计/女版十一罗汉 Oceans.Eight.2018.2160p.BluRay.x265.10bit.SDR.DTS-HD.MA.TrueHD.7.1.Atmos-SWTYBLZ 34.57GB-3.png 瞒天过海:美人计/女版十一罗汉 Oceans.Eight.2018.2160p.BluRay.x265.10bit.SDR.DTS-HD.MA.TrueHD.7.1.Atmos-SWTYBLZ 34.57GB-4.png 瞒天过海:美人计/女版十一罗汉 Oceans.Eight.2018.2160p.BluRay.x265.10bit.SDR.DTS-HD.MA.TrueHD.7.1.Atmos-SWTYBLZ 34.57GB-5.png 瞒天过海:美人计/女版十一罗汉 Oceans.Eight.2018.2160p.BluRay.x265.10bit.SDR.DTS-HD.MA.TrueHD.7.1.Atmos-SWTYBLZ 34.57GB-6.png 瞒天过海:美人计/女版十一罗汉 Oceans.Eight.2018.2160p.BluRay.x265.10bit.SDR.DTS-HD.MA.TrueHD.7.1.Atmos-SWTYBLZ 34.57GB-7.png 瞒天过海:美人计/女版十一罗汉 Oceans.Eight.2018.2160p.BluRay.x265.10bit.SDR.DTS-HD.MA.TrueHD.7.1.Atmos-SWTYBLZ 34.57GB-8.png






回复

使用道具 举报

懒得打字嘛,点击右侧快捷回复 【右侧内容,后台自定义】
您需要登录后才可以回帖 登录 | 立即加入

本版积分规则

Archiver|小黑屋| 蓝光电影网 |网站地图

Copyright © 2021 Comsenz Inc. Powered by 蓝光电影网

蓝光电影网

本站内容由用户自主分享和转载自互联网,转载目的在于传递更多信息,并不代表本网赞同其观点和对其真实性负责。

如有侵权、违反国家法律政策行为,请联系我们,我们会第一时间及时清除和处理!

举报反馈邮箱:[email protected]

快速回复 返回顶部 返回列表