找回密码

蓝光电影网

查看: 479|回复: 0

[喜剧] 理想之家/两个爸爸 Ideal.Home.2018.1080p.BluRay.REMUX.AVC.DTS-HD.MA.5.1-FGT 18.89GB

[复制链接]
蓝光币
623
发表于 2018-9-9 23:18:37 | 显示全部楼层 |阅读模式

理想之家/两个爸爸 Ideal.Home.2018.1080p.BluRay.REMUX.AVC.DTS-HD.MA.5.1-FGT 18.89GB-1.jpg
◎译  名 理想之家/两个爸爸(台)
◎片  名 Ideal Home
◎年  代 2018
◎产  地 美国
◎类  别 笑剧/同性
◎语  言 英语
◎上映日期 2018-02-15(同性恋狂欢电影节)/2018-06-29(美国部分上映)
◎豆瓣评分 6.3/10 from 550 users
◎豆瓣链接 https://movie.douban.com/subject/26726817/
◎片  长 91分钟
◎导  演 安德鲁·弗莱明 Andrew Fleming
◎主  演 保罗·路德 Paul Rudd
      凯特·沃什 Kate Walsh
      艾丽森·皮尔 Alison Pill
      杰克·麦克道曼 Jake McDorman
      史蒂夫·库根 Steve Coogan
      洛拉·玛汀内斯-康宁安 Lora Martinez-Cunningham
      萨拉·明妮奇 Sarah Minnich
      杰克·戈尔 Jack Gore
      杰西·卢肯 Jesse Luken
      弗兰西斯·李·麦克凯恩 Frances Lee McCain
      斯塔福德·道格拉斯 Stafford Douglas
      Cassandra Rochelle Fetters
      玛丽·瓦根曼 Marie Wagenman
      德鲁·德勒格 Drew Droege
      埃文·比当古 Evan Bittencourt
      理查德·比尔 Richard Beal
      J. Nathan Simmons
      Mike Miller

◎简  介

  保罗·路德联手史蒂夫·库根出演笑剧《理想之家》(An Ideal Home,暂译)。二人饰演一对共组家庭的同性朋友,一个亲戚的忽然到访打破了他们安静的生活。

  1. Video
  2. ID                                       : 1
  3. Format                                   : AVC
  4. Format/Info                              : Advanced Video Codec
  5. Format profile                           : [url=/cdn-cgi/l/email-protection][email protected][/url]
  6. Format settings                          : CABAC / 2 Ref Frames
  7. Format settings, CABAC                   : Yes
  8. Format settings, ReFrames                : 2 frames
  9. Codec ID                                 : V_MPEG4/ISO/AVC
  10. Duration                                 : 1 h 31 min
  11. Bit rate mode                            : Variable
  12. Bit rate                                 : 24.9 Mb/s
  13. Width                                    : 1 920 pixels
  14. Height                                   : 1 080 pixels
  15. Display aspect ratio                     : 16:9
  16. Frame rate mode                          : Constant
  17. Frame rate                               : 23.976 (24000/1001) FPS
  18. Color space                              : YUV
  19. Chroma subsampling                       : 4:2:0
  20. Bit depth                                : 8 bits
  21. Scan type                                : Progressive
  22. Bits/(Pixel*Frame)                       : 0.501
  23. Stream size                              : 15.9 GiB (84%)
  24. Title                                    : Ideal.Home.2018.1080p.BluRay.REMUX.AVC.DTS-HD.MA.5.1-FGT
  25. Language                                 : English
  26. Default                                  : No
  27. Forced                                   : No

  28. Audio #1
  29. ID                                       : 2
  30. Format                                   : DTS
  31. Format/Info                              : Digital Theater Systems
  32. Format profile                           : MA / Core
  33. Codec ID                                 : A_DTS
  34. Duration                                 : 1 h 31 min
  35. Bit rate mode                            : Variable / Constant
  36. Bit rate                                 : 3 169 kb/s / 1 509 kb/s
  37. Channel(s)                               : 6 channels
  38. Channel positions                        : Front: L C R, Side: L R, LFE
  39. Sampling rate                            : 48.0 kHz
  40. Frame rate                               : 93.750 FPS (512 SPF)
  41. Bit depth                                : 24 bits
  42. Compression mode                         : Lossless / Lossy
  43. Stream size                              : 2.02 GiB (11%)
  44. Title                                    : Ideal.Home.2018.1080p.BluRay.REMUX.AVC.DTS-HD.MA.5.1-FGT
  45. Language                                 : English
  46. Default                                  : Yes
  47. Forced                                   : No

  48. Audio #2
  49. ID                                       : 3
  50. Format                                   : DTS
  51. Format/Info                              : Digital Theater Systems
  52. Codec ID                                 : A_DTS
  53. Duration                                 : 1 h 31 min
  54. Bit rate mode                            : Constant
  55. Bit rate                                 : 1 509 kb/s
  56. Channel(s)                               : 6 channels
  57. Channel positions                        : Front: L C R, Side: L R, LFE
  58. Sampling rate                            : 48.0 kHz
  59. Frame rate                               : 93.750 FPS (512 SPF)
  60. Bit depth                                : 24 bits
  61. Compression mode                         : Lossy
  62. Stream size                              : 986 MiB (5%)
  63. Title                                    : Ideal.Home.2018.1080p.BluRay.REMUX.AVC.DTS-HD.MA.5.1-FGT
  64. Language                                 : English
  65. Default                                  : No
  66. Forced                                   : No

  67. Text
  68. ID                                       : 4
  69. Format                                   : PGS
  70. Muxing mode                              : zlib
  71. Codec ID                                 : S_HDMV/PGS
  72. Codec ID/Info                            : Picture based subtitle format used on BDs/HD-DVDs
  73. Duration                                 : 1 h 29 min
  74. Bit rate                                 : 41.4 kb/s
  75. Count of elements                        : 2740
  76. Stream size                              : 26.5 MiB (0%)
  77. Title                                    : English-PGS
  78. Language                                 : English
  79. Default                                  : Yes
  80. Forced                                   : No

  81. Menu
  82. 00:00:00.000                             : en:Chapter 01
  83. 00:04:31.354                             : en:Chapter 02
  84. 00:08:21.584                             : en:Chapter 03
  85. 00:14:31.829                             : en:Chapter 04
  86. 00:19:21.577                             : en:Chapter 05
  87. 00:23:11.556                             : en:Chapter 06
  88. 00:28:10.313                             : en:Chapter 07
  89. 00:33:55.992                             : en:Chapter 08
  90. 00:37:57.275                             : en:Chapter 09
  91. 00:43:32.860                             : en:Chapter 10
  92. 00:50:22.310                             : en:Chapter 11
  93. 00:57:07.590                             : en:Chapter 12
  94. 01:03:26.886                             : en:Chapter 13
  95. 01:09:52.271                             : en:Chapter 14
  96. 01:14:19.079                             : en:Chapter 15
  97. 01:21:59.664                             : en:Chapter 16
复制代码

复制代码

理想之家/两个爸爸 Ideal.Home.2018.1080p.BluRay.REMUX.AVC.DTS-HD.MA.5.1-FGT 18.89GB-2.png 理想之家/两个爸爸 Ideal.Home.2018.1080p.BluRay.REMUX.AVC.DTS-HD.MA.5.1-FGT 18.89GB-3.png 理想之家/两个爸爸 Ideal.Home.2018.1080p.BluRay.REMUX.AVC.DTS-HD.MA.5.1-FGT 18.89GB-4.png






回复

使用道具 举报

懒得打字嘛,点击右侧快捷回复 【右侧内容,后台自定义】
您需要登录后才可以回帖 登录 | 立即加入

本版积分规则

Archiver|小黑屋| 蓝光电影网 |网站地图

Copyright © 2021 Comsenz Inc. Powered by 蓝光电影网

蓝光电影网

本站内容由用户自主分享和转载自互联网,转载目的在于传递更多信息,并不代表本网赞同其观点和对其真实性负责。

如有侵权、违反国家法律政策行为,请联系我们,我们会第一时间及时清除和处理!

举报反馈邮箱:[email protected]

快速回复 返回顶部 返回列表