找回密码

蓝光电影网

查看: 850|回复: 1

[动作] 冲浪纳粹必死/冲浪纳粹必须死 Surf.Nazis.Must.Die.1987.1080p.BluRay.REMUX.AVC.DTS-HD.MA.2.0-FGT 17.72GB

[复制链接]
蓝光币
623
发表于 2018-9-9 23:18:55 | 显示全部楼层 |阅读模式

冲浪纳粹必死/冲浪纳粹必须死 Surf.Nazis.Must.Die.1987.1080p.BluRay.REMUX.AVC.DTS-HD.MA.2.0-FGT 17.72GB-1.jpg
◎译  名 冲浪纳粹必死/冲浪纳粹必须死
◎片  名 Surf Nazis Must Die
◎年  代 1987
◎产  地 美国
◎类  别 行动/笑剧/剧情/可骇
◎语  言 英语
◎上映日期 1987-07-03
◎豆瓣评分 3.8/10 from 125 users
◎豆瓣链接 https://movie.douban.com/subject/1293559/
◎片  长 USA: 83 分钟/UK: 80 分钟(DVD)
◎导  演 Peter George (II)

◎简  介

  None

  1. Video
  2. ID                                       : 1
  3. Format                                   : AVC
  4. Format/Info                              : Advanced Video Codec
  5. Format profile                           : [url=/cdn-cgi/l/email-protection][email protected][/url]
  6. Format settings                          : CABAC / 4 Ref Frames
  7. Format settings, CABAC                   : Yes
  8. Format settings, ReFrames                : 4 frames
  9. Codec ID                                 : V_MPEG4/ISO/AVC
  10. Duration                                 : 1 h 21 min
  11. Bit rate mode                            : Variable
  12. Bit rate                                 : 28.0 Mb/s
  13. Maximum bit rate                         : 35.0 Mb/s
  14. Width                                    : 1 920 pixels
  15. Height                                   : 1 080 pixels
  16. Display aspect ratio                     : 16:9
  17. Frame rate mode                          : Constant
  18. Frame rate                               : 23.976 (24000/1001) FPS
  19. Standard                                 : Component
  20. Color space                              : YUV
  21. Chroma subsampling                       : 4:2:0
  22. Bit depth                                : 8 bits
  23. Scan type                                : Progressive
  24. Bits/(Pixel*Frame)                       : 0.563
  25. Stream size                              : 16.0 GiB (90%)
  26. Title                                    : Surf.Nazis.Must.Die.1987.1080p.BluRay.REMUX.AVC.DTS-HD.MA.2.0-FGT
  27. Writing library                          : x264 core 148
  28. Encoding settings                        : cabac=1 / ref=4 / deblock=1:0:0 / analyse=0x3:0x113 / me=hex / subme=7 / psy=1 / psy_rd=1.00:0.00 / mixed_ref=1 / me_range=16 / chroma_me=1 / trellis=1 / 8x8dct=1 / cqm=1 / deadzone=21,11 / fast_pskip=1 / chroma_qp_offset=-2 / threads=6 / lookahead_threads=1 / sliced_threads=0 / slices=4 / nr=0 / decimate=1 / interlaced=0 / minigop=1 / stitchable=1 / constrained_intra=0 / bframes=2 / b_pyramid=0 / b_adapt=1 / b_bias=0 / direct=1 / weightb=1 / open_gop=1 / weightp=1 / keyint=24 / keyint_min=1 / scenecut=40 / intra_refresh=0 / rc_lookahead=24 / rc=2pass / mbtree=1 / bitrate=28000 / ratetol=1.0 / qcomp=0.60 / qpmin=3 / qpmax=69 / qpstep=4 / cplxblur=20.0 / qblur=0.5 / vbv_maxrate=35000 / vbv_bufsize=30000 / nal_hrd=vbr / filler=0 / ip_ratio=1.40 / aq=1:1.00
  29. Language                                 : English
  30. Default                                  : No
  31. Forced                                   : No
  32. Color range                              : Limited
  33. Color primaries                          : BT.709
  34. Transfer characteristics                 : BT.709
  35. Matrix coefficients                      : BT.709

  36. Audio #1
  37. ID                                       : 2
  38. Format                                   : DTS
  39. Format/Info                              : Digital Theater Systems
  40. Format profile                           : MA / Core
  41. Codec ID                                 : A_DTS
  42. Duration                                 : 1 h 21 min
  43. Bit rate mode                            : Variable / Constant
  44. Bit rate                                 : 1 536 kb/s / 1 509 kb/s
  45. Channel(s)                               : 2 channels
  46. Channel positions                        : Front: L R
  47. Sampling rate                            : 48.0 kHz
  48. Frame rate                               : 93.750 FPS (512 SPF)
  49. Bit depth                                : 16 bits
  50. Compression mode                         : Lossless / Lossy
  51. Stream size                              : 912 MiB (5%)
  52. Title                                    : Surf.Nazis.Must.Die.1987.1080p.BluRay.REMUX.AVC.DTS-HD.MA.2.0-FGT
  53. Language                                 : English
  54. Default                                  : Yes
  55. Forced                                   : No

  56. Audio #2
  57. ID                                       : 3
  58. Format                                   : DTS
  59. Format/Info                              : Digital Theater Systems
  60. Codec ID                                 : A_DTS
  61. Duration                                 : 1 h 21 min
  62. Bit rate mode                            : Constant
  63. Bit rate                                 : 1 509 kb/s
  64. Channel(s)                               : 2 channels
  65. Channel positions                        : Front: L R
  66. Sampling rate                            : 48.0 kHz
  67. Frame rate                               : 93.750 FPS (512 SPF)
  68. Bit depth                                : 16 bits
  69. Compression mode                         : Lossy
  70. Stream size                              : 881 MiB (5%)
  71. Title                                    : Surf.Nazis.Must.Die.1987.1080p.BluRay.REMUX.AVC.DTS-HD.MA.2.0-FGT
  72. Language                                 : English
  73. Default                                  : No
  74. Forced                                   : No

  75. Text
  76. ID                                       : 4
  77. Format                                   : PGS
  78. Muxing mode                              : zlib
  79. Codec ID                                 : S_HDMV/PGS
  80. Codec ID/Info                            : Picture based subtitle format used on BDs/HD-DVDs
  81. Duration                                 : 1 h 18 min
  82. Bit rate                                 : 28.3 kb/s
  83. Count of elements                        : 1510
  84. Stream size                              : 15.9 MiB (0%)
  85. Title                                    : English-PGS
  86. Language                                 : English
  87. Default                                  : Yes
  88. Forced                                   : No

  89. Menu
  90. 00:00:00.000                             : en:Chapter 01
  91. 00:09:00.414                             : en:Chapter 02
  92. 00:18:23.393                             : en:Chapter 03
  93. 00:30:05.094                             : en:Chapter 04
  94. 00:38:00.027                             : en:Chapter 05
  95. 00:53:01.386                             : en:Chapter 06
  96. 01:02:42.467                             : en:Chapter 07
  97. 01:13:17.101                             : en:Chapter 08
  98. 01:21:34.180                             : en:Chapter 09
复制代码

复制代码

冲浪纳粹必死/冲浪纳粹必须死 Surf.Nazis.Must.Die.1987.1080p.BluRay.REMUX.AVC.DTS-HD.MA.2.0-FGT 17.72GB-2.png 冲浪纳粹必死/冲浪纳粹必须死 Surf.Nazis.Must.Die.1987.1080p.BluRay.REMUX.AVC.DTS-HD.MA.2.0-FGT 17.72GB-3.png 冲浪纳粹必死/冲浪纳粹必须死 Surf.Nazis.Must.Die.1987.1080p.BluRay.REMUX.AVC.DTS-HD.MA.2.0-FGT 17.72GB-4.png






回复

使用道具 举报

懒得打字嘛,点击右侧快捷回复 【右侧内容,后台自定义】
您需要登录后才可以回帖 登录 | 立即加入

本版积分规则

Archiver|小黑屋| 蓝光电影网 |网站地图

Copyright © 2021 Comsenz Inc. Powered by 蓝光电影网

蓝光电影网

本站内容由用户自主分享和转载自互联网,转载目的在于传递更多信息,并不代表本网赞同其观点和对其真实性负责。

如有侵权、违反国家法律政策行为,请联系我们,我们会第一时间及时清除和处理!

举报反馈邮箱:[email protected]

快速回复 返回顶部 返回列表