找回密码

蓝光电影网

查看: 903|回复: 1

[动作] 超级苍蝇 SuperFly.2018.1080p.BluRay.REMUX.AVC.DTS-HD.MA.5.1-FGT 23.89GB

[复制链接]
蓝光币
623
发表于 2018-9-9 23:20:04 | 显示全部楼层 |阅读模式

超级苍蝇 SuperFly.2018.1080p.BluRay.REMUX.AVC.DTS-HD.MA.5.1-FGT 23.89GB-1.jpg
◎译  名 超级苍蝇
◎片  名 SuperFly
◎年  代 2018
◎产  地 美国
◎类  别 行动/犯罪/惊悚
◎语  言 英语
◎上映日期 2018-06-13(美国)
◎豆瓣评分 4.8/10 from 79 users
◎豆瓣链接 https://movie.douban.com/subject/27610991/
◎片  长 116分钟
◎导  演 X导演 Director X.
◎主  演 詹妮弗·莫里森 Jennifer Morrison
      特雷沃·杰克逊 Trevor Jackson
      迈克尔·肯尼斯·威廉姆斯 Michael Kenneth Williams
      埃塞·莫拉雷斯 Esai Morales
      杰森·米切尔 Jason Mitchell
      Lex Scott Davis
      安德莉亚·隆多 Andrea Londo
      阿伦·马尔多纳多 Allen Maldonado
      Adriyan Rae
      特雷勒·希尔 Terayle Hill
      Aundrea Smith
      Dawntavia Bullard
      大冯波 Big Boi
      玛丽亚·Z·威尔逊 Maria Z. Wilson
      Stephanie Garner
      Jacob Ming-Trent
      Al-Jaleel Knox
      L. Warren Young
      大卫·邓斯顿 David Dunston
      布莱恩·杜尔金 Brian F. Durkin
      迈克尔·比斯利 Michael Beasley
      Atkins Estimond
      Aparna Singh
      Ruben Vidal
      Kaalan Walker
      Dominique Madison
      Ryan J. Lewis
      Brian Kayode-Patrick Johnson
      Jared Losano
      Mehmet Korhan
      Ahmed Lucan
      里克·佩雷斯 Rick Perez
      Amy Stormant
      Ivan Leung
      Big Bank Black
      Kevin Young
      Chel Brickhouse
      Jamil Khan
      David Huegin
      Orlando Avila
      Krystle Darosa
      Trinity Moriah Jones
      Khyeer Hughes
      Richie Acevedo
      佩拉·米德尔顿 Perla Middleton

◎简  介

  一个可卡因估客意想到他的生活行将终结,要末是进牢狱,要末灭亡,因而决议策划最大的一笔买卖,弄完就逃离这类生活,但是大势让他不能脱身。

  1. Video
  2. ID                                       : 1
  3. Format                                   : AVC
  4. Format/Info                              : Advanced Video Codec
  5. Format profile                           : [url=/cdn-cgi/l/email-protection][email protected][/url]
  6. Format settings                          : CABAC / 2 Ref Frames
  7. Format settings, CABAC                   : Yes
  8. Format settings, ReFrames                : 2 frames
  9. Format settings, GOP                     : M=1, N=10
  10. Codec ID                                 : V_MPEG4/ISO/AVC
  11. Duration                                 : 1 h 56 min
  12. Bit rate mode                            : Variable
  13. Bit rate                                 : 24.8 Mb/s
  14. Width                                    : 1 920 pixels
  15. Height                                   : 1 080 pixels
  16. Display aspect ratio                     : 16:9
  17. Frame rate mode                          : Constant
  18. Frame rate                               : 23.976 (24000/1001) FPS
  19. Color space                              : YUV
  20. Chroma subsampling                       : 4:2:0
  21. Bit depth                                : 8 bits
  22. Scan type                                : Progressive
  23. Bits/(Pixel*Frame)                       : 0.500
  24. Stream size                              : 20.2 GiB (84%)
  25. Title                                    : SuperFly.2018.1080p.BluRay.REMUX.AVC.DTS-HD.MA.5.1-FGT
  26. Language                                 : English
  27. Default                                  : No
  28. Forced                                   : No

  29. Audio #1
  30. ID                                       : 2
  31. Format                                   : DTS
  32. Format/Info                              : Digital Theater Systems
  33. Format profile                           : MA / Core
  34. Codec ID                                 : A_DTS
  35. Duration                                 : 1 h 56 min
  36. Bit rate mode                            : Variable / Constant
  37. Bit rate                                 : 2 237 kb/s / 1 509 kb/s
  38. Channel(s)                               : 6 channels
  39. Channel positions                        : Front: L C R, Side: L R, LFE
  40. Sampling rate                            : 48.0 kHz
  41. Frame rate                               : 93.750 FPS (512 SPF)
  42. Bit depth                                : 16 bits
  43. Compression mode                         : Lossless / Lossy
  44. Stream size                              : 1.82 GiB (8%)
  45. Title                                    : SuperFly.2018.1080p.BluRay.REMUX.AVC.DTS-HD.MA.5.1-FGT
  46. Language                                 : English
  47. Default                                  : Yes
  48. Forced                                   : No

  49. Audio #2
  50. ID                                       : 3
  51. Format                                   : DTS
  52. Format/Info                              : Digital Theater Systems
  53. Codec ID                                 : A_DTS
  54. Duration                                 : 1 h 56 min
  55. Bit rate mode                            : Constant
  56. Bit rate                                 : 1 509 kb/s
  57. Channel(s)                               : 6 channels
  58. Channel positions                        : Front: L C R, Side: L R, LFE
  59. Sampling rate                            : 48.0 kHz
  60. Frame rate                               : 93.750 FPS (512 SPF)
  61. Bit depth                                : 16 bits
  62. Compression mode                         : Lossy
  63. Stream size                              : 1.22 GiB (5%)
  64. Title                                    : SuperFly.2018.1080p.BluRay.REMUX.AVC.DTS-HD.MA.5.1-FGT
  65. Language                                 : English
  66. Default                                  : No
  67. Forced                                   : No

  68. Audio #3
  69. ID                                       : 4
  70. Format                                   : AC-3
  71. Format/Info                              : Audio Coding 3
  72. Codec ID                                 : A_AC3
  73. Duration                                 : 1 h 56 min
  74. Bit rate mode                            : Constant
  75. Bit rate                                 : 640 kb/s
  76. Channel(s)                               : 6 channels
  77. Channel positions                        : Front: L C R, Side: L R, LFE
  78. Sampling rate                            : 48.0 kHz
  79. Frame rate                               : 31.250 FPS (1536 SPF)
  80. Bit depth                                : 16 bits
  81. Compression mode                         : Lossy
  82. Stream size                              : 532 MiB (2%)
  83. Title                                    : SuperFly.2018.1080p.BluRay.REMUX.AVC.DTS-HD.MA.5.1-FGT
  84. Language                                 : English
  85. Service kind                             : Complete Main
  86. Default                                  : No
  87. Forced                                   : No

  88. Text #1
  89. ID                                       : 5
  90. Format                                   : PGS
  91. Muxing mode                              : zlib
  92. Codec ID                                 : S_HDMV/PGS
  93. Codec ID/Info                            : Picture based subtitle format used on BDs/HD-DVDs
  94. Duration                                 : 1 h 56 min
  95. Bit rate                                 : 61.4 kb/s
  96. Count of elements                        : 4143
  97. Stream size                              : 50.9 MiB (0%)
  98. Title                                    : English-PGS
  99. Language                                 : English
  100. Default                                  : Yes
  101. Forced                                   : No

  102. Text #2
  103. ID                                       : 6
  104. Format                                   : PGS
  105. Muxing mode                              : zlib
  106. Codec ID                                 : S_HDMV/PGS
  107. Codec ID/Info                            : Picture based subtitle format used on BDs/HD-DVDs
  108. Duration                                 : 1 h 47 min
  109. Bit rate                                 : 48.7 kb/s
  110. Count of elements                        : 3124
  111. Stream size                              : 37.5 MiB (0%)
  112. Title                                    : English-PGS
  113. Language                                 : English
  114. Default                                  : No
  115. Forced                                   : No

  116. Text #3
  117. ID                                       : 7
  118. Format                                   : PGS
  119. Muxing mode                              : zlib
  120. Codec ID                                 : S_HDMV/PGS
  121. Codec ID/Info                            : Picture based subtitle format used on BDs/HD-DVDs
  122. Duration                                 : 50 min 45 s
  123. Bit rate                                 : 1 462 b/s
  124. Count of elements                        : 38
  125. Stream size                              : 544 KiB (0%)
  126. Title                                    : English-PGS
  127. Language                                 : English
  128. Default                                  : No
  129. Forced                                   : No

  130. Text #4
  131. ID                                       : 8
  132. Format                                   : PGS
  133. Muxing mode                              : zlib
  134. Codec ID                                 : S_HDMV/PGS
  135. Codec ID/Info                            : Picture based subtitle format used on BDs/HD-DVDs
  136. Duration                                 : 1 h 54 min
  137. Bit rate                                 : 32.1 kb/s
  138. Count of elements                        : 3194
  139. Stream size                              : 26.4 MiB (0%)
  140. Title                                    : Chinese-PGS
  141. Language                                 : Chinese
  142. Default                                  : No
  143. Forced                                   : No

  144. Text #5
  145. ID                                       : 9
  146. Format                                   : PGS
  147. Muxing mode                              : zlib
  148. Codec ID                                 : S_HDMV/PGS
  149. Codec ID/Info                            : Picture based subtitle format used on BDs/HD-DVDs
  150. Duration                                 : 1 h 54 min
  151. Bit rate                                 : 31.5 kb/s
  152. Count of elements                        : 3192
  153. Stream size                              : 25.8 MiB (0%)
  154. Title                                    : Chinese-PGS
  155. Language                                 : Chinese
  156. Default                                  : No
  157. Forced                                   : No

  158. Text #6
  159. ID                                       : 10
  160. Format                                   : PGS
  161. Muxing mode                              : zlib
  162. Codec ID                                 : S_HDMV/PGS
  163. Codec ID/Info                            : Picture based subtitle format used on BDs/HD-DVDs
  164. Duration                                 : 1 h 54 min
  165. Bit rate                                 : 40.1 kb/s
  166. Count of elements                        : 3164
  167. Stream size                              : 32.9 MiB (0%)
  168. Title                                    : French-PGS
  169. Language                                 : French
  170. Default                                  : No
  171. Forced                                   : No

  172. Text #7
  173. ID                                       : 11
  174. Format                                   : PGS
  175. Muxing mode                              : zlib
  176. Codec ID                                 : S_HDMV/PGS
  177. Codec ID/Info                            : Picture based subtitle format used on BDs/HD-DVDs
  178. Duration                                 : 1 h 54 min
  179. Bit rate                                 : 29.9 kb/s
  180. Count of elements                        : 3049
  181. Stream size                              : 24.6 MiB (0%)
  182. Title                                    : Korean-PGS
  183. Language                                 : Korean
  184. Default                                  : No
  185. Forced                                   : No

  186. Text #8
  187. ID                                       : 12
  188. Format                                   : PGS
  189. Muxing mode                              : zlib
  190. Codec ID                                 : S_HDMV/PGS
  191. Codec ID/Info                            : Picture based subtitle format used on BDs/HD-DVDs
  192. Duration                                 : 1 h 54 min
  193. Bit rate                                 : 44.9 kb/s
  194. Count of elements                        : 3170
  195. Stream size                              : 36.8 MiB (0%)
  196. Title                                    : Portuguese-PGS
  197. Language                                 : Portuguese
  198. Default                                  : No
  199. Forced                                   : No

  200. Text #9
  201. ID                                       : 13
  202. Format                                   : PGS
  203. Muxing mode                              : zlib
  204. Codec ID                                 : S_HDMV/PGS
  205. Codec ID/Info                            : Picture based subtitle format used on BDs/HD-DVDs
  206. Duration                                 : 1 h 54 min
  207. Bit rate                                 : 37.0 kb/s
  208. Count of elements                        : 2452
  209. Stream size                              : 30.4 MiB (0%)
  210. Title                                    : Spanish-PGS
  211. Language                                 : Spanish
  212. Default                                  : No
  213. Forced                                   : No

  214. Text #10
  215. ID                                       : 14
  216. Format                                   : PGS
  217. Muxing mode                              : zlib
  218. Codec ID                                 : S_HDMV/PGS
  219. Codec ID/Info                            : Picture based subtitle format used on BDs/HD-DVDs
  220. Duration                                 : 1 h 54 min
  221. Bit rate                                 : 37.6 kb/s
  222. Count of elements                        : 3194
  223. Stream size                              : 30.9 MiB (0%)
  224. Title                                    : Thai-PGS
  225. Language                                 : Thai
  226. Default                                  : No
  227. Forced                                   : No

  228. Menu
  229. 00:00:00.000                             : en:Chapter 01
  230. 00:05:54.145                             : en:Chapter 02
  231. 00:14:24.321                             : en:Chapter 03
  232. 00:21:11.603                             : en:Chapter 04
  233. 00:28:39.926                             : en:Chapter 05
  234. 00:35:25.915                             : en:Chapter 06
  235. 00:40:37.518                             : en:Chapter 07
  236. 00:47:54.121                             : en:Chapter 08
  237. 00:54:24.511                             : en:Chapter 09
  238. 01:00:06.227                             : en:Chapter 10
  239. 01:08:10.628                             : en:Chapter 11
  240. 01:16:01.348                             : en:Chapter 12
  241. 01:22:30.487                             : en:Chapter 13
  242. 01:32:03.559                             : en:Chapter 14
  243. 01:38:19.852                             : en:Chapter 15
  244. 01:47:35.449                             : en:Chapter 16
复制代码

复制代码

超级苍蝇 SuperFly.2018.1080p.BluRay.REMUX.AVC.DTS-HD.MA.5.1-FGT 23.89GB-2.png 超级苍蝇 SuperFly.2018.1080p.BluRay.REMUX.AVC.DTS-HD.MA.5.1-FGT 23.89GB-3.png 超级苍蝇 SuperFly.2018.1080p.BluRay.REMUX.AVC.DTS-HD.MA.5.1-FGT 23.89GB-4.png






回复

使用道具 举报

懒得打字嘛,点击右侧快捷回复 【右侧内容,后台自定义】
您需要登录后才可以回帖 登录 | 立即加入

本版积分规则

Archiver|小黑屋| 蓝光电影网 |网站地图

Copyright © 2021 Comsenz Inc. Powered by 蓝光电影网

蓝光电影网

本站内容由用户自主分享和转载自互联网,转载目的在于传递更多信息,并不代表本网赞同其观点和对其真实性负责。

如有侵权、违反国家法律政策行为,请联系我们,我们会第一时间及时清除和处理!

举报反馈邮箱:[email protected]

快速回复 返回顶部 返回列表