找回密码

蓝光电影网

查看: 918|回复: 1

[动作] 游侠索罗:星球大战外传/韩索罗:星球大战外传 Solo.A.Star.Wars.Story.2018.720p.BluRay.x264.DTS-HDC 8.17GB

[复制链接]
蓝光币
623
发表于 2018-9-12 00:04:59 | 显示全部楼层 |阅读模式


◎译  名 游侠索罗:星球大战外传/韩索罗:星球大战外传(港)/星球大战外传:游侠索罗/星球大战外传:索罗/星球大战韩·索罗外传/游侠索罗/韩索罗外传/星战外传2
◎片  名 Solo: A Star Wars Story
◎年  代 2018
◎产  地 美国
◎类  别 行动/科幻/冒险
◎语  言 英语
◎上映日期 2018-05-10(洛杉矶首映)/2018-05-25(美国)/2018-05-25(中国大陆)
◎豆瓣评分 7.0/10 from 22,523 users
◎豆瓣链接 https://movie.douban.com/subject/25900947/
◎片  长 135分钟
◎导  演 朗·霍华德 Ron Howard
◎主  演 阿尔登·埃伦瑞奇 Alden Ehrenreich
      艾米莉亚·克拉克 Emilia Clarke
      伍迪·哈里森 Woody Harrelson
      唐纳德·格洛弗 Donald Glover
      保罗·贝坦尼 Paul Bettany
      乔纳斯·索塔莫 Joonas Suotamo
      菲比·沃勒-布里奇 Phoebe Waller-Bridge
      沃维克·戴维斯 Warwick Davis
      坦迪·牛顿 Thandie Newton
      克林特·霍华德 Clint Howard
      伊安·肯尼 Ian Kenny
      理查德·迪克森 Richard Dixon

◎简  介

  在《游侠索罗》(暂译)中,影迷们将跟从“千年隼号”及银河系中最受爱戴的“无赖”韩·索罗,迎来全新的银河系探险旅程。经过在黑暗危险的罪犯地下社会中的重重冒险,韩·索罗碰见了他未来强大的副驾驶丘巴卡、以及污名昭著的赌徒兰多·卡瑞辛,配合展开了一场星战传奇中最不“正统”的豪杰过程。

  1. Video
  2. ID                                       : 1
  3. Format                                   : AVC
  4. Format/Info                              : Advanced Video Codec
  5. Format profile                           : [url=/cdn-cgi/l/email-protection][email protected][/url]
  6. Format settings                          : CABAC / 12 Ref Frames
  7. Format settings, CABAC                   : Yes
  8. Format settings, ReFrames                : 12 frames
  9. Codec ID                                 : V_MPEG4/ISO/AVC
  10. Duration                                 : 2 h 14 min
  11. Bit rate                                 : 7 200 kb/s
  12. Width                                    : 1 280 pixels
  13. Height                                   : 536 pixels
  14. Display aspect ratio                     : 2.40:1
  15. Frame rate mode                          : Constant
  16. Frame rate                               : 23.976 (24000/1001) FPS
  17. Color space                              : YUV
  18. Chroma subsampling                       : 4:2:0
  19. Bit depth                                : 8 bits
  20. Scan type                                : Progressive
  21. Bits/(Pixel*Frame)                       : 0.438
  22. Stream size                              : 6.75 GiB (83%)
  23. Title                                    : Solo.A.Star.Wars.Story.2018.720p.BluRay.x264.DTS-HDC
  24. Writing library                          : x264 core 152 r2851kMod ba24899
  25. Encoding settings                        : cabac=1 / ref=12 / deblock=1:-3:-3 / analyse=0x3:0x133 / me=umh / subme=11 / psy=1 / fade_compensate=0.00 / psy_rd=1.10:0.00 / mixed_ref=1 / me_range=48 / chroma_me=1 / trellis=2 / 8x8dct=1 / cqm=0 / deadzone=21,11 / fast_pskip=0 / chroma_qp_offset=-2 / threads=12 / lookahead_threads=2 / sliced_threads=0 / nr=0 / decimate=0 / interlaced=0 / bluray_compat=0 / constrained_intra=0 / bframes=8 / b_pyramid=2 / b_adapt=2 / b_bias=0 / direct=3 / weightb=1 / open_gop=0 / weightp=2 / keyint=240 / keyint_min=2 / scenecut=40 / intra_refresh=0 / rc_lookahead=0 / rc=2pass / mbtree=0 / bitrate=7200 / ratetol=1.0 / qcomp=0.70 / qpmin=0 / qpmax=69 / qpstep=4 / cplxblur=20.0 / qblur=0.5 / vbv_maxrate=50000 / vbv_bufsize=30000 / nal_hrd=none / filler=0 / ip_ratio=1.30 / pb_ratio=1.20 / aq=3:0.90
  26. Default                                  : Yes
  27. Forced                                   : No

  28. Audio
  29. ID                                       : 2
  30. Format                                   : DTS
  31. Format/Info                              : Digital Theater Systems
  32. Codec ID                                 : A_DTS
  33. Duration                                 : 2 h 14 min
  34. Bit rate mode                            : Constant
  35. Bit rate                                 : 1 509 kb/s
  36. Channel(s)                               : 6 channels
  37. Channel positions                        : Front: L C R, Side: L R, LFE
  38. Sampling rate                            : 48.0 kHz
  39. Frame rate                               : 93.750 FPS (512 SPF)
  40. Bit depth                                : 24 bits
  41. Compression mode                         : Lossy
  42. Stream size                              : 1.42 GiB (17%)
  43. Title                                    : Solo.A.Star.Wars.Story.2018.720p.BluRay.x264.DTS-HDC
  44. Language                                 : English
  45. Default                                  : Yes
  46. Forced                                   : No

  47. Text
  48. ID                                       : 3
  49. Format                                   : UTF-8
  50. Codec ID                                 : S_TEXT/UTF8
  51. Codec ID/Info                            : UTF-8 Plain Text
  52. Duration                                 : 2 h 5 min
  53. Bit rate                                 : 56 b/s
  54. Count of elements                        : 1957
  55. Stream size                              : 51.9 KiB (0%)
  56. Language                                 : English
  57. Default                                  : Yes
  58. Forced                                   : No

  59. Menu
  60. 00:00:00.000                             : en:Opening Credits
  61. 00:00:53.845                             : en:Streets of Corellia
  62. 00:02:10.213                             : en:Qi\'ra
  63. 00:03:53.150                             : en:Den of The White Worms
  64. 00:06:00.485                             : en:Corellian Speeder Chase
  65. 00:09:27.567                             : en:Coronet Spaceport
  66. 00:13:16.045                             : en:Recruitment
  67. 00:14:14.020                             : en:Mimban Battlefield
  68. 00:16:12.263                             : en:None-of-Your-Business Company
  69. 00:19:45.101                             : en:The Beast
  70. 00:22:43.821                             : en:Mimban Escape
  71. 00:24:37.267                             : en:Vandor
  72. 00:27:00.035                             : en:Camfire Stories
  73. 00:30:02.926                             : en:Conveyex Heist
  74. 00:32:54.681                             : en:Marauder Attack
  75. 00:39:09.764                             : en:\"You\'re in This Life For Good\"
  76. 00:41:59.225                             : en:The Yacht
  77. 00:43:20.181                             : en:Dryden Vos
  78. 00:44:32.128                             : en:Reunion
  79. 00:48:03.756                             : en:Deal with Crimson Dawn
  80. 00:51:58.324                             : en:The Lodge
  81. 00:53:17.528                             : en:Full Sabacc
  82. 00:57:23.523                             : en:Lando and L3
  83. 01:00:16.780                             : en:Millennium Falcon
  84. 01:02:40.882                             : en:\"Buckle Up, Baby\"
  85. 01:04:51.262                             : en:\"People Are Predictable\"
  86. 01:05:29.509                             : en:Han and Qi\'ra
  87. 01:07:12.028                             : en:\"Trust No One\"
  88. 01:08:05.915                             : en:Not Cpmpatible
  89. 01:10:00.113                             : en:Arrival on Kessel
  90. 01:12:44.193                             : en:Into the Mines
  91. 01:14:40.851                             : en:Revolt
  92. 01:18:30.873                             : en:Kessel Shootout
  93. 01:23:15.741                             : en:Into the Maelstrom
  94. 01:26:32.646                             : en:Kessel Run
  95. 01:30:33.136                             : en:Escaping the Maw
  96. 01:35:19.672                             : en:Savareen
  97. 01:37:04.861                             : en:The Good Guy
  98. 01:38:52.802                             : en:Marauders Return
  99. 01:41:18.531                             : en:Enfys Nest
  100. 01:43:02.676                             : en:One Last Score
  101. 01:45:27.821                             : en:The Delivery
  102. 01:46:32.177                             : en:Explosive Stuff
  103. 01:49:45.996                             : en:Double-Crossings
  104. 01:53:33.890                             : en:Duel with Dryden
  105. 01:57:13.902                             : en:Secret Leader
  106. 01:58:55.128                             : en:Showdown
  107. 02:01:34.829                             : en:Rebellion\'s Dawn
  108. 02:03:20.893                             : en:Sabacc Rematch
  109. 02:06:09.353                             : en:End Credits
复制代码

复制代码








回复

使用道具 举报

懒得打字嘛,点击右侧快捷回复 【右侧内容,后台自定义】
您需要登录后才可以回帖 登录 | 立即加入

本版积分规则

Archiver|小黑屋| 蓝光电影网 |网站地图

Copyright © 2021 Comsenz Inc. Powered by 蓝光电影网

蓝光电影网

本站内容由用户自主分享和转载自互联网,转载目的在于传递更多信息,并不代表本网赞同其观点和对其真实性负责。

如有侵权、违反国家法律政策行为,请联系我们,我们会第一时间及时清除和处理!

举报反馈邮箱:[email protected]

快速回复 返回顶部 返回列表