找回密码

蓝光电影网

查看: 532|回复: 1

[剧情] 猫咪后院之家/猫咪收集之家 Neko.Atsume.House.2017.720p.BluRay.x264-REGRET 4.37GB

[复制链接]
蓝光币
623
发表于 2018-9-12 00:06:31 | 显示全部楼层 |阅读模式

猫咪后院之家/猫咪收集之家 Neko.Atsume.House.2017.720p.BluRay.x264-REGRET 4.37GB-1.jpg
◎译  名 猫咪后院之家/猫咪收集之家(台)/猫咪来我家(港)
◎片  名 ねこあつめの家
◎年  代 2017
◎产  地 日本
◎类  别 剧情
◎语  言 日语
◎上映日期 2017-04-08(日本)
◎豆瓣评分 6.5/10 from 2,322 users
◎豆瓣链接 https://movie.douban.com/subject/26954690/
◎片  长 92分钟
◎导  演 藏方政俊 Masatoshi Kurakata
◎主  演 伊藤淳史 Atsushi It?
      忽那汐里 Kutsuna Shiori
      户田昌宏 Masahiro Toda
      大久保佳代子 Kaiyoko Okubo
      田口智朗 Tomorowo Taguchi
      木村多江 Tae Kimura
      青户浩香 Aoto Hiro

◎简  介

  年数悄悄获得新人奖,一举成为人气作家的小说家?佐久本胜(伊藤淳史 饰),现在却堕入了低潮期。在编辑会议中,为了让阿胜再次登上畅销排行,编辑长居然发起赶搭时下最风行的『尸速』系列作为新的小说主题,这让原本走小清新气概的佐久本感应疾苦却也只能委曲接管应战。阿胜为了转换情况,来到了乡下的一间古宅,写作灵感就跟这间古宅一样:空?荡?荡。某天,居然有只猫跑了进来,阿胜不经意想起自己的第一本小说,小时辰和猫相处的暖和感受。渐渐地,猫咪们居然疏忽阿胜,起头在古宅来去自若,就当自己家一样。阿胜在义务编辑的美知留(忽那汐里 饰)的帮助,以及宠物店老板(木村多江 饰)的保举下安插出猫咪庭院。年轻小说家的「猫咪收集」的生活就此展开,就是要给你满满的猫咪大庭院!

  1. Video
  2. ID                                       : 1
  3. Format                                   : AVC
  4. Format/Info                              : Advanced Video Codec
  5. Format profile                           : [url=/cdn-cgi/l/email-protection][email protected][/url]
  6. Format settings                          : CABAC / 5 Ref Frames
  7. Format settings, CABAC                   : Yes
  8. Format settings, RefFrames               : 5 frames
  9. Codec ID                                 : V_MPEG4/ISO/AVC
  10. Duration                                 : 1 h 32 min
  11. Bit rate                                 : 6 143 kb/s
  12. Width                                    : 1 280 pixels
  13. Height                                   : 688 pixels
  14. Display aspect ratio                     : 1.85:1
  15. Frame rate mode                          : Constant
  16. Frame rate                               : 23.976 (24000/1001) FPS
  17. Color space                              : YUV
  18. Chroma subsampling                       : 4:2:0
  19. Bit depth                                : 8 bits
  20. Scan type                                : Progressive
  21. Bits/(Pixel*Frame)                       : 0.291
  22. Stream size                              : 3.96 GiB (91%)
  23. Writing library                          : x264 core 155 r2901 7d0ff22
  24. Encoding settings                        : cabac=1 / ref=5 / deblock=1:-3:-3 / analyse=0x3:0x133 / me=umh / subme=9 / psy=1 / psy_rd=1.00:0.00 / mixed_ref=1 / me_range=16 / chroma_me=1 / trellis=2 / 8x8dct=1 / cqm=0 / deadzone=21,11 / fast_pskip=0 / chroma_qp_offset=-2 / threads=21 / lookahead_threads=1 / sliced_threads=0 / nr=0 / decimate=1 / interlaced=0 / bluray_compat=0 / constrained_intra=0 / bframes=3 / b_pyramid=2 / b_adapt=1 / b_bias=0 / direct=3 / weightb=1 / open_gop=0 / weightp=2 / keyint=240 / keyint_min=24 / scenecut=40 / intra_refresh=0 / rc_lookahead=50 / rc=2pass / mbtree=1 / bitrate=6143 / ratetol=1.0 / qcomp=0.60 / qpmin=0 / qpmax=69 / qpstep=4 / cplxblur=20.0 / qblur=0.5 / ip_ratio=1.40 / aq=1:1.00
  25. Language                                 : English
  26. Default                                  : Yes
  27. Forced                                   : No

  28. Audio
  29. ID                                       : 2
  30. Format                                   : AC-3
  31. Format/Info                              : Audio Coding 3
  32. Format settings, Endianness              : Big
  33. Codec ID                                 : A_AC3
  34. Duration                                 : 1 h 32 min
  35. Bit rate mode                            : Constant
  36. Bit rate                                 : 640 kb/s
  37. Channel(s)                               : 6 channels
  38. Channel positions                        : Front: L C R, Side: L R, LFE
  39. Sampling rate                            : 48.0 kHz
  40. Frame rate                               : 31.250 FPS (1536 SPF)
  41. Bit depth                                : 16 bits
  42. Compression mode                         : Lossy
  43. Stream size                              : 422 MiB (9%)
  44. Language                                 : Japanese
  45. Service kind                             : Complete Main
  46. Default                                  : Yes
  47. Forced                                   : No

  48. Text
  49. ID                                       : 3
  50. Format                                   : UTF-8
  51. Codec ID                                 : S_TEXT/UTF8
  52. Codec ID/Info                            : UTF-8 Plain Text
  53. Duration                                 : 1 h 31 min
  54. Bit rate                                 : 25 b/s
  55. Count of elements                        : 656
  56. Stream size                              : 16.9 KiB (0%)
  57. Title                                    : English
  58. Language                                 : English
  59. Default                                  : Yes
  60. Forced                                   : Yes

  61. Menu
  62. 00:00:00.000                             : en:00:00:00.000
  63. 00:03:03.850                             : en:00:03:03.850
  64. 00:10:00.558                             : en:00:10:00.558
  65. 00:14:29.035                             : en:00:14:29.035
  66. 00:16:50.092                             : en:00:16:50.092
  67. 00:20:58.924                             : en:00:20:58.924
  68. 00:27:20.514                             : en:00:27:20.514
  69. 00:31:09.576                             : en:00:31:09.576
  70. 00:36:44.160                             : en:00:36:44.160
  71. 00:40:50.782                             : en:00:40:50.782
  72. 00:43:34.278                             : en:00:43:34.278
  73. 00:48:49.510                             : en:00:48:49.510
  74. 00:56:32.973                             : en:00:56:32.973
  75. 00:59:57.969                             : en:00:59:57.969
  76. 01:04:22.942                             : en:01:04:22.942
  77. 01:07:24.457                             : en:01:07:24.457
  78. 01:14:37.181                             : en:01:14:37.181
  79. 01:21:51.281                             : en:01:21:51.281
  80. 01:25:22.951                             : en:01:25:22.951
  81. 01:28:30.430                             : en:01:28:30.430
复制代码

复制代码

猫咪后院之家/猫咪收集之家 Neko.Atsume.House.2017.720p.BluRay.x264-REGRET 4.37GB-2.jpg





回复

使用道具 举报

懒得打字嘛,点击右侧快捷回复 【右侧内容,后台自定义】
您需要登录后才可以回帖 登录 | 立即加入

本版积分规则

Archiver|小黑屋| 蓝光电影网 |网站地图

Copyright © 2021 Comsenz Inc. Powered by 蓝光电影网

蓝光电影网

本站内容由用户自主分享和转载自互联网,转载目的在于传递更多信息,并不代表本网赞同其观点和对其真实性负责。

如有侵权、违反国家法律政策行为,请联系我们,我们会第一时间及时清除和处理!

举报反馈邮箱:[email protected]

快速回复 返回顶部 返回列表