找回密码

蓝光电影网

查看: 1527|回复: 1

[爱情] 波丽露 Bolero.1984.1080p.BluRay.x264-SADPANDA 7.64GB

[复制链接]
蓝光币
623
发表于 2018-9-12 10:09:42 | 显示全部楼层 |阅读模式

波丽露 Bolero.1984.1080p.BluRay.x264-SADPANDA 7.64GB-1.jpg
◎译  名 波丽露
◎片  名 Bolero
◎年  代 1984
◎产  地 美国
◎类  别 恋爱
◎语  言 英语
◎上映日期 1986-04-18
◎豆瓣评分 5.9/10 from 105 users
◎豆瓣链接 https://movie.douban.com/subject/1973775/
◎片  长 105 分钟
◎导  演 John Derek
◎主  演 Bo Derek

◎简  介

  这是一部关于随着一次年轻妇女的性叫醒,处处追求她理想的情人的旅途中,时代偶遇一位阿拉伯回教族长和西班牙斗牛士,终极在她的朋友和男管家伴帮助下终成家属的故事。

  1. Video
  2. ID                                       : 1
  3. Format                                   : AVC
  4. Format/Info                              : Advanced Video Codec
  5. Format profile                           : [url=/cdn-cgi/l/email-protection][email protected][/url]
  6. Format settings                          : CABAC / 4 Ref Frames
  7. Format settings, CABAC                   : Yes
  8. Format settings, ReFrames                : 4 frames
  9. Codec ID                                 : V_MPEG4/ISO/AVC
  10. Duration                                 : 1 h 44 min
  11. Bit rate                                 : 8 919 kb/s
  12. Width                                    : 1 920 pixels
  13. Height                                   : 1 040 pixels
  14. Display aspect ratio                     : 1.85:1
  15. Frame rate mode                          : Constant
  16. Frame rate                               : 23.976 (24000/1001) FPS
  17. Color space                              : YUV
  18. Chroma subsampling                       : 4:2:0
  19. Bit depth                                : 8 bits
  20. Scan type                                : Progressive
  21. Bits/(Pixel*Frame)                       : 0.186
  22. Stream size                              : 6.53 GiB (86%)
  23. Writing library                          : x264 core 148 r2665 a01e339
  24. Encoding settings                        : cabac=1 / ref=4 / deblock=1:-3:-3 / analyse=0x3:0x113 / me=umh / subme=8 / psy=1 / psy_rd=1.00:0.25 / mixed_ref=1 / me_range=24 / chroma_me=1 / trellis=1 / 8x8dct=1 / cqm=0 / deadzone=21,11 / fast_pskip=1 / chroma_qp_offset=-4 / threads=12 / lookahead_threads=2 / sliced_threads=0 / nr=0 / decimate=1 / interlaced=0 / bluray_compat=0 / constrained_intra=0 / bframes=3 / b_pyramid=2 / b_adapt=2 / b_bias=0 / direct=3 / weightb=1 / open_gop=0 / weightp=2 / keyint=240 / keyint_min=24 / scenecut=40 / intra_refresh=0 / rc_lookahead=50 / rc=2pass / mbtree=1 / bitrate=8919 / ratetol=1.0 / qcomp=0.60 / qpmin=0 / qpmax=69 / qpstep=4 / cplxblur=20.0 / qblur=0.5 / vbv_maxrate=62500 / vbv_bufsize=78125 / nal_hrd=none / filler=0 / ip_ratio=1.40 / aq=1:0.50
  25. Default                                  : Yes
  26. Forced                                   : No

  27. Audio
  28. ID                                       : 2
  29. Format                                   : DTS
  30. Format/Info                              : Digital Theater Systems
  31. Codec ID                                 : A_DTS
  32. Duration                                 : 1 h 44 min
  33. Bit rate mode                            : Constant
  34. Bit rate                                 : 1 509 kb/s
  35. Channel(s)                               : 2 channels
  36. Channel positions                        : Front: L R
  37. Sampling rate                            : 48.0 kHz
  38. Frame rate                               : 93.750 FPS (512 SPF)
  39. Bit depth                                : 24 bits
  40. Compression mode                         : Lossy
  41. Stream size                              : 1.11 GiB (14%)
  42. Language                                 : English
  43. Default                                  : Yes
  44. Forced                                   : No

  45. Menu
  46. 00:00:00.000                             : en:00:00:00.000
  47. 00:14:56.229                             : en:00:14:56.229
  48. 00:29:36.942                             : en:00:29:36.942
  49. 00:43:03.706                             : en:00:43:03.706
  50. 00:59:17.053                             : en:00:59:17.053
  51. 01:15:18.264                             : en:01:15:18.264
  52. 01:27:50.140                             : en:01:27:50.140
  53. 01:42:32.772                             : en:01:42:32.772
复制代码

复制代码

波丽露 Bolero.1984.1080p.BluRay.x264-SADPANDA 7.64GB-2.png 波丽露 Bolero.1984.1080p.BluRay.x264-SADPANDA 7.64GB-3.png 波丽露 Bolero.1984.1080p.BluRay.x264-SADPANDA 7.64GB-4.png






回复

使用道具 举报

蓝光币
1820
发表于 2020-10-21 15:02:44 | 显示全部楼层
要感谢楼主分享
回复 支持 反对

使用道具 举报

懒得打字嘛,点击右侧快捷回复 【右侧内容,后台自定义】
您需要登录后才可以回帖 登录 | 立即加入

本版积分规则

Archiver|小黑屋| 蓝光电影网 |网站地图

Copyright © 2021 Comsenz Inc. Powered by 蓝光电影网

蓝光电影网

本站内容由用户自主分享和转载自互联网,转载目的在于传递更多信息,并不代表本网赞同其观点和对其真实性负责。

如有侵权、违反国家法律政策行为,请联系我们,我们会第一时间及时清除和处理!

举报反馈邮箱:[email protected]

快速回复 返回顶部 返回列表