找回密码

蓝光电影网

查看: 614|回复: 0

[喜剧] 口袋清单 Pocket.Listing.2015.1080p.BluRay.x264-RUSTED 7.65GB

[复制链接]
蓝光币
623
发表于 2018-9-12 11:04:56 | 显示全部楼层 |阅读模式

口袋清单 Pocket.Listing.2015.1080p.BluRay.x264-RUSTED 7.65GB-1.jpg
◎译  名 口袋清单
◎片  名 Pocket Listing
◎年  代 2014
◎产  地 美国
◎类  别 笑剧/行动/惊悚
◎语  言 英语
◎上映日期 2014-06-06(美国)
◎豆瓣评分 /10 from 0 users
◎豆瓣链接 https://movie.douban.com/subject/25800423/
◎片  长 92分钟
◎导  演 Conor Allyn
◎主  演 诺尔·古格雷米 Noel Gugliemi
      杰西卡·克拉克 Jessica Clark
      肯·戴维蒂安 Ken Davitian
      罗伯·劳 Rob Lowe
      伯特·雷诺兹 Burt Reynolds
      詹娜·海兹 Jenna Haze
      Sean Mann

◎简  介

  Double crosses, adultery, murder, mistaken identity, and revenge ensue when a mysterious power player and his sultry wife hire a disgraced Los Angeles property broker to discreetly market and sell their Malibu villa.

  1. Video
  2. ID                                       : 1
  3. Format                                   : AVC
  4. Format/Info                              : Advanced Video Codec
  5. Format profile                           : [url=/cdn-cgi/l/email-protection][email protected][/url]
  6. Format settings, CABAC                   : Yes
  7. Format settings, ReFrames                : 4 frames
  8. Codec ID                                 : V_MPEG4/ISO/AVC
  9. Duration                                 : 1h 31mn
  10. Bit rate                                 : 11.2 Mbps
  11. Width                                    : 1 920 pixels
  12. Height                                   : 1 080 pixels
  13. Display aspect ratio                     : 16:9
  14. Frame rate mode                          : Constant
  15. Frame rate                               : 23.976 (24000/1001) fps
  16. Color space                              : YUV
  17. Chroma subsampling                       : 4:2:0
  18. Bit depth                                : 8 bits
  19. Scan type                                : Progressive
  20. Bits/(Pixel*Frame)                       : 0.225
  21. Stream size                              : 7.16 GiB (94%)
  22. Writing library                          : x264 core 152 r2851 ba24899
  23. Encoding settings                        : cabac=1 / ref=4 / deblock=1:1:1 / analyse=0x3:0x133 / me=umh / subme=8 / psy=1 / psy_rd=1.00:0.00 / mixed_ref=1 / me_range=16 / chroma_me=1 / trellis=1 / 8x8dct=1 / cqm=0 / deadzone=21,11 / fast_pskip=0 / chroma_qp_offset=-2 / threads=16 / lookahead_threads=2 / sliced_threads=0 / nr=0 / decimate=1 / interlaced=0 / bluray_compat=0 / constrained_intra=0 / bframes=3 / b_pyramid=2 / b_adapt=2 / b_bias=0 / direct=3 / weightb=1 / open_gop=0 / weightp=2 / keyint=250 / keyint_min=23 / scenecut=40 / intra_refresh=0 / rc_lookahead=50 / rc=2pass / mbtree=1 / bitrate=11205 / ratetol=1.0 / qcomp=0.60 / qpmin=0 / qpmax=69 / qpstep=4 / cplxblur=20.0 / qblur=0.5 / ip_ratio=1.40 / aq=1:1.00
  24. Default                                  : Yes
  25. Forced                                   : No

  26. Audio
  27. ID                                       : 2
  28. Format                                   : DTS
  29. Format/Info                              : Digital Theater Systems
  30. Mode                                     : 16
  31. Format settings, Endianness              : Big
  32. Codec ID                                 : A_DTS
  33. Duration                                 : 1h 31mn
  34. Bit rate mode                            : Constant
  35. Bit rate                                 : 768 Kbps
  36. Channel(s)                               : 6 channels
  37. Channel positions                        : Front: L C R, Side: L R, LFE
  38. Sampling rate                            : 48.0 KHz
  39. Frame rate                               : 93.750 fps (512 spf)
  40. Bit depth                                : 24 bits
  41. Compression mode                         : Lossy
  42. Stream size                              : 502 MiB (6%)
  43. Language                                 : English
  44. Default                                  : Yes
  45. Forced                                   : No

  46. Menu
  47. 00:00:00.000                             : en:00:00:00.000
  48. 00:03:11.316                             : en:00:03:11.316
  49. 00:08:47.026                             : en:00:08:47.026
  50. 00:14:53.976                             : en:00:14:53.976
  51. 00:25:04.253                             : en:00:25:04.253
  52. 00:33:23.460                             : en:00:33:23.460
  53. 00:42:16.617                             : en:00:42:16.617
  54. 00:49:57.161                             : en:00:49:57.161
  55. 00:55:16.605                             : en:00:55:16.605
  56. 01:07:23.414                             : en:01:07:23.414
  57. 01:19:37.690                             : en:01:19:37.690
  58. 01:28:10.619                             : en:01:28:10.619
复制代码

复制代码

口袋清单 Pocket.Listing.2015.1080p.BluRay.x264-RUSTED 7.65GB-2.jpg






回复

使用道具 举报

懒得打字嘛,点击右侧快捷回复 【右侧内容,后台自定义】
您需要登录后才可以回帖 登录 | 立即加入

本版积分规则

Archiver|小黑屋| 蓝光电影网 |网站地图

Copyright © 2021 Comsenz Inc. Powered by 蓝光电影网

蓝光电影网

本站内容由用户自主分享和转载自互联网,转载目的在于传递更多信息,并不代表本网赞同其观点和对其真实性负责。

如有侵权、违反国家法律政策行为,请联系我们,我们会第一时间及时清除和处理!

举报反馈邮箱:[email protected]

快速回复 返回顶部 返回列表