找回密码

蓝光电影网

查看: 666|回复: 0

[剧情] 朴烈/逆权车夫 Anarchist.from.Colony.2017.KOREAN.1080p.BluRay.x264.DTS-MT 14.80GB

[复制链接]
蓝光币
623
发表于 2018-9-12 11:13:29 | 显示全部楼层 |阅读模式

朴烈/逆权车夫 Anarchist.from.Colony.2017.KOREAN.1080p.BluRay.x264.DTS-MT 14.80GB-1.jpg
◎译  名 朴烈/逆权车夫(港)
◎片  名 ??
◎年  代 2017
◎产  地 韩国
◎类  别 剧情/列传/行动
◎语  言 韩语
◎上映日期 2017-06-29(韩国)
◎豆瓣评分 6.1/10 from 510 users
◎豆瓣链接 https://movie.douban.com/subject/26945131/
◎片  长 129分钟
◎导  演 李濬益 Jun-ik Lee
◎主  演 李帝勋 Je-hoon Lee
      白秀长 Soo-Jang Baek
      权律 Yool Kwan
      闵镇雄 Jin-woong Min
      崔嬉序 Moon Choi
      裴济基 Bae Je-gi
      金仁宇 In-woo Kim
      金俊汉 Kim Joon-han
      武田裕光 Hiromitsu Takeda

◎简  介

  《朴烈》报告了韩国自力活动家朴烈坎坷盘曲的平生,演员李帝勋将在剧中饰演朴烈一角。朴烈作为无政府主义自力活动家,在日本殖民期间正面匹敌日本内阁,震动日本政坛。

◎获奖情况

  第38届韩国电影青龙奖  (2017)
  最好影片(提名) 李濬益
  最好导演(提名) 李濬益
  最好新人男演员(提名) 金俊翰
  最好新人女演员 崔嬉序
  最好剧本(提名)
  技术奖(提名)

  第12届亚洲电影大奖  (2018)
  最好女配角(提名) 崔嬉序
  最好编剧(提名) 黄成求
  最好外型设想(提名) 沈贤燮

  1. Video
  2. ID                                       : 1
  3. Format                                   : AVC
  4. Format/Info                              : Advanced Video Codec
  5. Format profile                           : [url=/cdn-cgi/l/email-protection][email protected][/url]
  6. Format settings                          : CABAC / 5 Ref Frames
  7. Format settings, CABAC                   : Yes
  8. Format settings, ReFrames                : 5 frames
  9. Codec ID                                 : V_MPEG4/ISO/AVC
  10. Duration                                 : 2 h 8 min
  11. Bit rate                                 : 15.0 Mb/s
  12. Width                                    : 1 920 pixels
  13. Height                                   : 804 pixels
  14. Display aspect ratio                     : 2.40:1
  15. Frame rate mode                          : Constant
  16. Frame rate                               : 23.976 (24000/1001) FPS
  17. Color space                              : YUV
  18. Chroma subsampling                       : 4:2:0
  19. Bit depth                                : 8 bits
  20. Scan type                                : Progressive
  21. Bits/(Pixel*Frame)                       : 0.404
  22. Stream size                              : 13.4 GiB (91%)
  23. Title                                    : Anarchist.from.Colony.2017.KOREAN.1080p.BluRay.x264.DTS-HD.MA.5.1-MT
  24. Language                                 : Korean
  25. Default                                  : Yes
  26. Forced                                   : No

  27. Audio
  28. ID                                       : 2
  29. Format                                   : DTS
  30. Format/Info                              : Digital Theater Systems
  31. Codec ID                                 : A_DTS
  32. Duration                                 : 2 h 8 min
  33. Bit rate mode                            : Constant
  34. Bit rate                                 : 1 509 kb/s
  35. Channel(s)                               : 6 channels
  36. Channel positions                        : Front: L C R, Side: L R, LFE
  37. Sampling rate                            : 48.0 kHz
  38. Frame rate                               : 93.750 FPS (512 SPF)
  39. Bit depth                                : 24 bits
  40. Compression mode                         : Lossy
  41. Stream size                              : 1.36 GiB (9%)
  42. Language                                 : Korean
  43. Default                                  : Yes
  44. Forced                                   : No

  45. Text
  46. ID                                       : 3
  47. Format                                   : UTF-8
  48. Codec ID                                 : S_TEXT/UTF8
  49. Codec ID/Info                            : UTF-8 Plain Text
  50. Duration                                 : 2 h 4 min
  51. Bit rate                                 : 47 b/s
  52. Count of elements                        : 1457
  53. Stream size                              : 43.4 KiB (0%)
  54. Language                                 : English
  55. Default                                  : Yes
  56. Forced                                   : Yes
复制代码

复制代码

朴烈/逆权车夫 Anarchist.from.Colony.2017.KOREAN.1080p.BluRay.x264.DTS-MT 14.80GB-2.png 朴烈/逆权车夫 Anarchist.from.Colony.2017.KOREAN.1080p.BluRay.x264.DTS-MT 14.80GB-3.png 朴烈/逆权车夫 Anarchist.from.Colony.2017.KOREAN.1080p.BluRay.x264.DTS-MT 14.80GB-4.png





回复

使用道具 举报

懒得打字嘛,点击右侧快捷回复 【右侧内容,后台自定义】
您需要登录后才可以回帖 登录 | 立即加入

本版积分规则

Archiver|小黑屋| 蓝光电影网 |网站地图

Copyright © 2021 Comsenz Inc. Powered by 蓝光电影网

蓝光电影网

本站内容由用户自主分享和转载自互联网,转载目的在于传递更多信息,并不代表本网赞同其观点和对其真实性负责。

如有侵权、违反国家法律政策行为,请联系我们,我们会第一时间及时清除和处理!

举报反馈邮箱:[email protected]

快速回复 返回顶部 返回列表