找回密码

蓝光电影网

查看: 1543|回复: 3

[科幻] 是谁让我脑死了 Brain.Dead.1990.1080p.BluRay.x264-HD4U 5.46GB

[复制链接]
蓝光币
623
发表于 2018-9-12 11:15:33 | 显示全部楼层 |阅读模式

是谁让我脑死了 Brain.Dead.1990.1080p.BluRay.x264-HD4U 5.46GB-1.jpg
◎译  名 是谁让我脑死了
◎片  名 Brain Dead
◎年  代 1990
◎产  地 美国
◎类  别 科幻/悬疑/惊悚/可骇
◎语  言 英语
◎上映日期 1990-01-19
◎豆瓣评分 7.6/10 from 794 users
◎豆瓣链接 https://movie.douban.com/subject/1293503/
◎片  长 85 分钟
◎导  演 亚当·西蒙 Adam Simon
◎主  演 比尔·普尔曼 Bill Pullman
      比尔·帕克斯顿 Bill Paxton
      巴德·库特 Bud Cort
      尼古拉斯·普罗约尔 Nicholas Pryor
      帕特丽夏·夏博诺 Patricia Charbonneau
      乔治·肯尼迪 George Kennedy
      李·阿伦伯格 Lee Arenberg
      安迪·伍德 Andy Wood
      Maud Winchester
      Jon Kellam
      威利·加森 Willie Garson
      约翰·帕克斯顿 John Paxton

◎简  介

  马丁是一位可贵的医学奇才,当优尼斯企业发现他的专业技术时,诡计以优异的条件压服马丁应用高明的脑部测试,逼出得了妄想症的医学研讨员个侯希的方程式来。在多重的强逼下马丁将侯希的各种妄想移植到自己的身上,但一切不成思议的情况就此展开……(很不错的惊悚悬疑片,脑浆在这部电影里出现频次很是高)
  血腥度:2
  变态度:2
  片中怪物数目:-
  怪物范例:-
  怪物特点:-
  怪物必杀技:-
  怪物恶心度:-
  -----Zombiehunter

  1. Video
  2. ID                                       : 1
  3. Format                                   : AVC
  4. Format/Info                              : Advanced Video Codec
  5. Format profile                           : [url=/cdn-cgi/l/email-protection][email protected][/url]
  6. Format settings                          : CABAC / 4 Ref Frames
  7. Format settings, CABAC                   : Yes
  8. Format settings, RefFrames               : 4 frames
  9. Codec ID                                 : V_MPEG4/ISO/AVC
  10. Duration                                 : 1 h 24 min
  11. Bit rate                                 : 8 745 kb/s
  12. Width                                    : 1 920 pixels
  13. Height                                   : 1 040 pixels
  14. Display aspect ratio                     : 1.85:1
  15. Frame rate mode                          : Constant
  16. Frame rate                               : 23.976 (24000/1001) FPS
  17. Color space                              : YUV
  18. Chroma subsampling                       : 4:2:0
  19. Bit depth                                : 8 bits
  20. Scan type                                : Progressive
  21. Bits/(Pixel*Frame)                       : 0.183
  22. Stream size                              : 5.14 GiB (94%)
  23. Writing library                          : x264 core 155 r2901 7d0ff22
  24. Encoding settings                        : cabac=1 / ref=4 / deblock=1:-3:-3 / analyse=0x3:0x113 / me=umh / subme=8 / psy=1 / psy_rd=1.00:0.25 / mixed_ref=1 / me_range=24 / chroma_me=1 / trellis=1 / 8x8dct=1 / cqm=0 / deadzone=21,11 / fast_pskip=1 / chroma_qp_offset=-4 / threads=30 / lookahead_threads=5 / sliced_threads=0 / nr=0 / decimate=1 / interlaced=0 / bluray_compat=0 / constrained_intra=0 / bframes=3 / b_pyramid=2 / b_adapt=1 / b_bias=0 / direct=3 / weightb=1 / open_gop=0 / weightp=2 / keyint=240 / keyint_min=24 / scenecut=40 / intra_refresh=0 / rc_lookahead=50 / rc=2pass / mbtree=1 / bitrate=8745 / ratetol=1.0 / qcomp=0.60 / qpmin=0 / qpmax=69 / qpstep=4 / cplxblur=20.0 / qblur=0.5 / ip_ratio=1.40 / aq=1:0.75
  25. Default                                  : Yes
  26. Forced                                   : No

  27. Audio
  28. ID                                       : 2
  29. Format                                   : FLAC
  30. Format/Info                              : Free Lossless Audio Codec
  31. Codec ID                                 : A_FLAC
  32. Duration                                 : 1 h 24 min
  33. Bit rate mode                            : Variable
  34. Bit rate                                 : 529 kb/s
  35. Channel(s)                               : 2 channels
  36. Channel positions                        : Front: L R
  37. Sampling rate                            : 48.0 kHz
  38. Frame rate                               : 11.719 FPS (4096 SPF)
  39. Bit depth                                : 16 bits
  40. Stream size                              : 319 MiB (6%)
  41. Writing library                          : libFLAC 1.2.1 (UTC 2007-09-17)
  42. Language                                 : English
  43. Default                                  : Yes
  44. Forced                                   : No

  45. Menu
  46. 00:00:00.000                             : en:00:00:00.000
  47. 00:05:10.101                             : en:00:05:10.101
  48. 00:09:01.291                             : en:00:09:01.291
  49. 00:13:37.817                             : en:00:13:37.817
  50. 00:17:51.445                             : en:00:17:51.445
  51. 00:25:07.423                             : en:00:25:07.423
  52. 00:33:56.785                             : en:00:33:56.785
  53. 00:41:43.000                             : en:00:41:43.000
  54. 00:49:13.450                             : en:00:49:13.450
  55. 00:55:23.737                             : en:00:55:23.737
  56. 01:03:53.288                             : en:01:03:53.288
  57. 01:11:47.762                             : en:01:11:47.762
复制代码

复制代码

是谁让我脑死了 Brain.Dead.1990.1080p.BluRay.x264-HD4U 5.46GB-2.jpg






回复

使用道具 举报

懒得打字嘛,点击右侧快捷回复 【右侧内容,后台自定义】
您需要登录后才可以回帖 登录 | 立即加入

本版积分规则

Archiver|小黑屋| 蓝光电影网 |网站地图

Copyright © 2021 Comsenz Inc. Powered by 蓝光电影网

蓝光电影网

本站内容由用户自主分享和转载自互联网,转载目的在于传递更多信息,并不代表本网赞同其观点和对其真实性负责。

如有侵权、违反国家法律政策行为,请联系我们,我们会第一时间及时清除和处理!

举报反馈邮箱:[email protected]

快速回复 返回顶部 返回列表