找回密码

蓝光电影网

查看: 571|回复: 0

[剧情] 血枪富士 Bloody.Spear.at.Mount.Fuji.1955.1080p.BluRay.x264-GHOULS 6.56GB

[复制链接]
蓝光币
623
发表于 2018-9-12 11:22:37 | 显示全部楼层 |阅读模式

血枪富士 Bloody.Spear.at.Mount.Fuji.1955.1080p.BluRay.x264-GHOULS 6.56GB-1.jpg
◎译  名 血枪富士
◎片  名 血槍富士
◎年  代 1955
◎产  地 日本
◎类  别 冒险/剧情
◎语  言 日语
◎上映日期 1955-02-27(日本)
◎豆瓣评分 7.6/10 from 239 users
◎豆瓣链接 https://movie.douban.com/subject/1755415/
◎片  长 Japan: 94 分钟
◎导  演 内田吐梦 Tomu Uchida
◎主  演 片冈千惠藏  Chiezo Kataoka
      月形龙之介 Ryunosuke Tsukigata
      田代百合子 Yuriko Tashiro
      加东大介 Daisuke Kat?
      进藤英太郎 Eitar? Shind?
      小川虎之助 Toranosuke Ogawa
      赤木春惠 Harue Akagi

◎简  介

  持枪随从权八受命庇护少店主小十郎及随从源太去江户,与他们同业的还有小百货贩子传次、外出售身的农家姑娘和老爷茂作、推拿师巡礼、卖艺的澄母女、形迹可疑的藤三郎,还有流浪儿次郎。权八看见少店主小十郎和随从都酗酒贪酒,很是不安。夜幕来临,一行人在袋井住下。传次思疑带着很多钱的藤三郎是大盗,正欲追踪,实在住在隔邻的巡礼才是实在的大盗六卫门。当晚,权八受澄之邀出门,小十郎与源太乘隙大喝起酒来,幸亏权八实时赶回才没出什么工作。第二天,六门卫偷大人的盘缠,被权太擒获。藤三郎所带的钱本来是为了赎回五年前卖出的女儿,可现在他晓得女儿已死,就用这笔钱为农家姑娘赎了身。小十郎与源太又进了小酒馆,酣醉后遭了军人的辣手。
  影片按照日本作家井上金太郎于1927所作的《道中悲记》改编而成。这是一部历史剧,以表示“虔诚”为主线贯串始终,充实地应用了所谓正统历史剧的表示手法,以古典的手法和游记形式拍摄,剧中进场人物各具特点。导演内田吐梦晚年当演员时便已经起头了电影生活,他在二次大战时代曾执导过很多电影,为日本有声电影的成长起到了不成轻忽的历史感化。该片遭到了各界注视,入选1959年《电影旬报》十部佳片的第八位。

  1. Video
  2. ID                                       : 1
  3. Format                                   : AVC
  4. Format/Info                              : Advanced Video Codec
  5. Format profile                           : [url=/cdn-cgi/l/email-protection][email protected][/url]
  6. Format settings                          : CABAC / 5 Ref Frames
  7. Format settings, CABAC                   : Yes
  8. Format settings, RefFrames               : 5 frames
  9. Codec ID                                 : V_MPEG4/ISO/AVC
  10. Duration                                 : 1 h 34 min
  11. Bit rate                                 : 8 699 kb/s
  12. Width                                    : 1 488 pixels
  13. Height                                   : 1 080 pixels
  14. Display aspect ratio                     : 1.378
  15. Frame rate mode                          : Constant
  16. Frame rate                               : 23.976 (24000/1001) FPS
  17. Color space                              : YUV
  18. Chroma subsampling                       : 4:2:0
  19. Bit depth                                : 8 bits
  20. Scan type                                : Progressive
  21. Bits/(Pixel*Frame)                       : 0.226
  22. Stream size                              : 5.72 GiB (87%)
  23. Writing library                          : x264 core 157 r2932 303c484
  24. Encoding settings                        : cabac=1 / ref=5 / deblock=1:-3:-3 / analyse=0x3:0x133 / me=umh / subme=8 / psy=1 / psy_rd=1.00:0.00 / mixed_ref=1 / me_range=16 / chroma_me=1 / trellis=1 / 8x8dct=1 / cqm=0 / deadzone=21,11 / fast_pskip=0 / chroma_qp_offset=-2 / threads=24 / lookahead_threads=4 / sliced_threads=0 / nr=0 / decimate=1 / interlaced=0 / bluray_compat=0 / constrained_intra=0 / bframes=3 / b_pyramid=2 / b_adapt=1 / b_bias=0 / direct=3 / weightb=1 / open_gop=0 / weightp=2 / keyint=250 / keyint_min=23 / scenecut=40 / intra_refresh=0 / rc_lookahead=50 / rc=2pass / mbtree=1 / bitrate=8699 / ratetol=1.0 / qcomp=0.60 / qpmin=0 / qpmax=69 / qpstep=4 / cplxblur=20.0 / qblur=0.5 / vbv_maxrate=62500 / vbv_bufsize=78125 / nal_hrd=none / filler=0 / ip_ratio=1.40 / aq=1:1.00
  25. Default                                  : Yes
  26. Forced                                   : No

  27. Audio #1
  28. ID                                       : 2
  29. Format                                   : AC-3
  30. Format/Info                              : Audio Coding 3
  31. Format settings, Endianness              : Big
  32. Codec ID                                 : A_AC3
  33. Duration                                 : 1 h 34 min
  34. Bit rate mode                            : Constant
  35. Bit rate                                 : 640 kb/s
  36. Channel(s)                               : 2 channels
  37. Channel positions                        : Front: L R
  38. Sampling rate                            : 48.0 kHz
  39. Frame rate                               : 31.250 FPS (1536 SPF)
  40. Bit depth                                : 16 bits
  41. Compression mode                         : Lossy
  42. Stream size                              : 430 MiB (6%)
  43. Language                                 : English
  44. Service kind                             : Complete Main
  45. Default                                  : No
  46. Forced                                   : No

  47. Audio #2
  48. ID                                       : 3
  49. Format                                   : AC-3
  50. Format/Info                              : Audio Coding 3
  51. Format settings, Endianness              : Big
  52. Codec ID                                 : A_AC3
  53. Duration                                 : 1 h 34 min
  54. Bit rate mode                            : Constant
  55. Bit rate                                 : 640 kb/s
  56. Channel(s)                               : 2 channels
  57. Channel positions                        : Front: L R
  58. Sampling rate                            : 48.0 kHz
  59. Frame rate                               : 31.250 FPS (1536 SPF)
  60. Bit depth                                : 16 bits
  61. Compression mode                         : Lossy
  62. Stream size                              : 430 MiB (6%)
  63. Language                                 : Japanese
  64. Service kind                             : Complete Main
  65. Default                                  : Yes
  66. Forced                                   : No

  67. Text
  68. ID                                       : 4
  69. Format                                   : UTF-8
  70. Codec ID                                 : S_TEXT/UTF8
  71. Codec ID/Info                            : UTF-8 Plain Text
  72. Duration                                 : 1 h 33 min
  73. Bit rate                                 : 32 b/s
  74. Count of elements                        : 732
  75. Stream size                              : 22.5 KiB (0%)
  76. Language                                 : English
  77. Default                                  : Yes
  78. Forced                                   : No

  79. Menu
  80. 00:00:00.000                             : en:00:00:00.000
  81. 00:08:05.276                             : en:00:08:05.276
  82. 00:15:54.036                             : en:00:15:54.036
  83. 00:23:08.345                             : en:00:23:08.345
  84. 00:30:38.378                             : en:00:30:38.378
  85. 00:38:57.544                             : en:00:38:57.544
  86. 00:46:00.633                             : en:00:46:00.633
  87. 00:54:47.993                             : en:00:54:47.993
  88. 01:03:16.418                             : en:01:03:16.418
  89. 01:09:30.875                             : en:01:09:30.875
  90. 01:17:18.008                             : en:01:17:18.008
  91. 01:24:22.391                             : en:01:24:22.391
复制代码

复制代码

血枪富士 Bloody.Spear.at.Mount.Fuji.1955.1080p.BluRay.x264-GHOULS 6.56GB-2.jpg







回复

使用道具 举报

懒得打字嘛,点击右侧快捷回复 【右侧内容,后台自定义】
您需要登录后才可以回帖 登录 | 立即加入

本版积分规则

Archiver|小黑屋| 蓝光电影网 |网站地图

Copyright © 2021 Comsenz Inc. Powered by 蓝光电影网

蓝光电影网

本站内容由用户自主分享和转载自互联网,转载目的在于传递更多信息,并不代表本网赞同其观点和对其真实性负责。

如有侵权、违反国家法律政策行为,请联系我们,我们会第一时间及时清除和处理!

举报反馈邮箱:[email protected]

快速回复 返回顶部 返回列表