找回密码

蓝光电影网

查看: 556|回复: 1

[喜剧] 休假 Furlough.2018.1080p.BluRay.x264-UNVEiL 6.56GB

[复制链接]
蓝光币
623
发表于 2018-9-12 11:41:05 | 显示全部楼层 |阅读模式

休假 Furlough.2018.1080p.BluRay.x264-UNVEiL 6.56GB-1.jpg
◎译  名 休假
◎片  名 Furlough
◎年  代 2018
◎产  地 美国
◎类  别 笑剧
◎语  言 英语
◎上映日期 2018-03-16(美国)
◎豆瓣评分 6.3/10 from 104 users
◎豆瓣链接 https://movie.douban.com/subject/27042515/
◎片  长 83分钟
◎导  演 劳瑞·科利尔 Laurie Collyer
◎主  演 梅丽莎·里奥 Melissa Leo
      泰莎·汤普森 Tessa Thompson
      乌比·戈德堡 Whoopi Goldberg
      埃德加·拉米雷兹 édgar Ramírez
      安娜·帕奎因 Anna Paquin
      德瑞娜·德尼罗 Drena De Niro
      LaLa Vazquez
      Edward M. Kelahan
      Azhy Robertson
      Stephanie Little

◎简  介

  IFC Films拿下笑剧[休假]北美刊行权。泰莎·汤普森和梅丽莎·里奥任主演,劳瑞·科利尔执导。泰莎饰演在牢狱工作,同时要照顾年老母亲的女人。一天,她被分派陪一监犯(梅丽莎饰)去探望其病笃的母亲,两人在旅途中堕入紊乱。该片主演还包括乌比·戈德堡、安娜·帕奎因、埃德加·拉米雷兹等。

  1. Video
  2. ID                                       : 1
  3. Format                                   : AVC
  4. Format/Info                              : Advanced Video Codec
  5. Format profile                           : [url=/cdn-cgi/l/email-protection][email protected][/url]
  6. Format settings                          : CABAC / 5 Ref Frames
  7. Format settings, CABAC                   : Yes
  8. Format settings, RefFrames               : 5 frames
  9. Codec ID                                 : V_MPEG4/ISO/AVC
  10. Duration                                 : 1 h 23 min
  11. Bit rate                                 : 9 745 kb/s
  12. Width                                    : 1 920 pixels
  13. Height                                   : 800 pixels
  14. Display aspect ratio                     : 2.40:1
  15. Frame rate mode                          : Constant
  16. Frame rate                               : 23.976 (24000/1001) FPS
  17. Color space                              : YUV
  18. Chroma subsampling                       : 4:2:0
  19. Bit depth                                : 8 bits
  20. Scan type                                : Progressive
  21. Bits/(Pixel*Frame)                       : 0.265
  22. Stream size                              : 5.67 GiB (87%)
  23. Writing library                          : x264 core 155 r2901 7d0ff22
  24. Encoding settings                        : cabac=1 / ref=5 / deblock=1:-2:-2 / analyse=0x3:0x113 / me=umh / subme=8 / psy=1 / psy_rd=1.00:0.00 / mixed_ref=1 / me_range=16 / chroma_me=1 / trellis=2 / 8x8dct=1 / cqm=0 / deadzone=21,11 / fast_pskip=1 / chroma_qp_offset=-2 / threads=12 / lookahead_threads=2 / sliced_threads=0 / nr=0 / decimate=1 / interlaced=0 / bluray_compat=0 / constrained_intra=0 / bframes=3 / b_pyramid=2 / b_adapt=2 / b_bias=0 / direct=3 / weightb=1 / open_gop=0 / weightp=2 / keyint=240 / keyint_min=24 / scenecut=40 / intra_refresh=0 / rc_lookahead=50 / rc=2pass / mbtree=1 / bitrate=9745 / ratetol=1.0 / qcomp=0.60 / qpmin=0 / qpmax=69 / qpstep=4 / cplxblur=20.0 / qblur=0.5 / ip_ratio=1.40 / aq=1:1.00
  25. Language                                 : English
  26. Default                                  : Yes
  27. Forced                                   : No

  28. Audio
  29. ID                                       : 2
  30. Format                                   : DTS
  31. Format/Info                              : Digital Theater Systems
  32. Mode                                     : 16
  33. Format settings, Endianness              : Big
  34. Codec ID                                 : A_DTS
  35. Duration                                 : 1 h 23 min
  36. Bit rate mode                            : Constant
  37. Bit rate                                 : 1 509 kb/s
  38. Channel(s)                               : 6 channels
  39. Channel positions                        : Front: L C R, Side: L R, LFE
  40. Sampling rate                            : 48.0 kHz
  41. Frame rate                               : 93.750 FPS (512 SPF)
  42. Bit depth                                : 24 bits
  43. Compression mode                         : Lossy
  44. Stream size                              : 900 MiB (13%)
  45. Language                                 : English
  46. Default                                  : Yes
  47. Forced                                   : No

  48. Menu
  49. 00:00:00.000                             : en:00:00:00.000
  50. 00:08:37.600                             : en:00:08:37.600
  51. 00:17:15.034                             : en:00:17:15.034
  52. 00:22:03.531                             : en:00:22:03.531
  53. 00:24:20.834                             : en:00:24:20.834
  54. 00:30:01.383                             : en:00:30:01.383
  55. 00:31:43.819                             : en:00:31:43.819
  56. 00:41:49.340                             : en:00:41:49.340
  57. 00:48:35.246                             : en:00:48:35.246
  58. 00:51:38.721                             : en:00:51:38.721
  59. 00:58:25.794                             : en:00:58:25.794
  60. 01:13:32.825                             : en:01:13:32.825
复制代码

复制代码

休假 Furlough.2018.1080p.BluRay.x264-UNVEiL 6.56GB-2.jpg






回复

使用道具 举报

懒得打字嘛,点击右侧快捷回复 【右侧内容,后台自定义】
您需要登录后才可以回帖 登录 | 立即加入

本版积分规则

Archiver|小黑屋| 蓝光电影网 |网站地图

Copyright © 2021 Comsenz Inc. Powered by 蓝光电影网

蓝光电影网

本站内容由用户自主分享和转载自互联网,转载目的在于传递更多信息,并不代表本网赞同其观点和对其真实性负责。

如有侵权、违反国家法律政策行为,请联系我们,我们会第一时间及时清除和处理!

举报反馈邮箱:[email protected]

快速回复 返回顶部 返回列表