找回密码

蓝光电影网

查看: 641|回复: 1

[剧情] 书店/街角的书店 The.Bookshop.2017.LiMiTED.720p.BluRay.x264-VETO 4.37GB

[复制链接]
蓝光币
623
发表于 2018-9-15 17:35:45 | 显示全部楼层 |阅读模式

书店/街角的书店 The.Bookshop.2017.LiMiTED.720p.BluRay.x264-VETO 4.37GB-1.jpg
◎译  名 书店/街角的书店(台)
◎片  名 The Bookshop
◎年  代 2017
◎产  地 英国/西班牙/德国
◎类  别 剧情
◎语  言 英语
◎上映日期 2017-10-21(巴利亚多利德电影节)/2017-11-10(西班牙)
◎豆瓣评分 7.6/10 from 3,783 users
◎豆瓣链接 https://movie.douban.com/subject/25728612/
◎片  长 113分钟
◎导  演 伊莎贝尔·科赛特 Isabel Coixet
◎主  演 艾米莉·莫迪默 Emily Mortimer
      比尔·奈伊 Bill Nighy
      派翠西娅·克拉克森 Patricia Clarkson
      亨特·特里梅恩 Hunter Tremayne
      霍纳·妮芙茜 Honor Kneafsey
      詹姆斯·兰斯 James Lance
      弗兰西斯·巴贝 Frances Barber
      雷格·威尔森 Reg Wilson
      迈克尔·菲茨杰拉德 Michael Fitzgerald
      尼格尔·奥尼尔 Nigel O'Neill
      豪尔赫·苏克特 Jorge Suquet
      拉纳·奥克尔 Lana O'Kell
      阿迪·艾伦 Adie Allen
      夏洛特·维嘉 Charlotte Vega
      朱莉·克里斯蒂 Julie Christie

◎简  介

  影片改编自佩内洛普·菲茨杰拉德同名小说《书店》,布景设定于1959年,具有自在灵魂的弗萝伦丝·格林在落空丈夫后,将悲痛放在一边,赌上一切开了一家信店,这是昏昏沉沉的英格兰海边小镇哈堡的唯逐一家信店。经过这家信店,狭隘确当地人打仗到了今世最优异的文学作品,拓宽了视野,百年来原封不动的小镇掀起了一阵文化醒觉的风潮。弗萝伦丝是以结识了同道中人布朗迪希师长,他也早已厌倦了小镇陈旧的空气。但她的行为也招致了仇人,其他买卖欠好的店东对她发生了敌意,还有零碎较量、满腹怨言的加玛特夫人。当弗萝伦丝拒绝屈就于加玛特夫人的意志时,她们起头了一场角逐,不但为了书店,更加了小镇的心脏和灵魂。

  1. Video
  2. ID                                       : 1
  3. Format                                   : AVC
  4. Format/Info                              : Advanced Video Codec
  5. Format profile                           : [url=/cdn-cgi/l/email-protection][email protected][/url]
  6. Format settings                          : CABAC / 5 Ref Frames
  7. Format settings, CABAC                   : Yes
  8. Format settings, RefFrames               : 5 frames
  9. Codec ID                                 : V_MPEG4/ISO/AVC
  10. Duration                                 : 1 h 52 min
  11. Bit rate                                 : 4 040 kb/s
  12. Width                                    : 1 280 pixels
  13. Height                                   : 688 pixels
  14. Display aspect ratio                     : 1.85:1
  15. Frame rate mode                          : Constant
  16. Frame rate                               : 24.000 FPS
  17. Color space                              : YUV
  18. Chroma subsampling                       : 4:2:0
  19. Bit depth                                : 8 bits
  20. Scan type                                : Progressive
  21. Bits/(Pixel*Frame)                       : 0.191
  22. Stream size                              : 3.18 GiB (73%)
  23. Writing library                          : x264 core 155 r2901 7d0ff22
  24. Encoding settings                        : cabac=1 / ref=5 / deblock=1:1:1 / analyse=0x3:0x133 / me=umh / subme=8 / psy=1 / psy_rd=1.00:0.00 / mixed_ref=1 / me_range=16 / chroma_me=1 / trellis=1 / 8x8dct=1 / cqm=0 / deadzone=21,11 / fast_pskip=0 / chroma_qp_offset=-2 / threads=16 / lookahead_threads=2 / sliced_threads=0 / nr=0 / decimate=1 / interlaced=0 / bluray_compat=0 / constrained_intra=0 / bframes=3 / b_pyramid=2 / b_adapt=2 / b_bias=0 / direct=3 / weightb=1 / open_gop=0 / weightp=2 / keyint=250 / keyint_min=24 / scenecut=40 / intra_refresh=0 / rc_lookahead=50 / rc=2pass / mbtree=1 / bitrate=4040 / ratetol=1.0 / qcomp=0.60 / qpmin=0 / qpmax=69 / qpstep=4 / cplxblur=20.0 / qblur=0.5 / ip_ratio=1.40 / aq=1:1.00
  25. Default                                  : Yes
  26. Forced                                   : No

  27. Audio
  28. ID                                       : 2
  29. Format                                   : DTS
  30. Format/Info                              : Digital Theater Systems
  31. Mode                                     : 16
  32. Format settings, Endianness              : Big
  33. Codec ID                                 : A_DTS
  34. Duration                                 : 1 h 52 min
  35. Bit rate mode                            : Constant
  36. Bit rate                                 : 1 509 kb/s
  37. Channel(s)                               : 6 channels
  38. Channel positions                        : Front: L C R, Side: L R, LFE
  39. Sampling rate                            : 48.0 kHz
  40. Frame rate                               : 93.750 FPS (512 SPF)
  41. Bit depth                                : 24 bits
  42. Compression mode                         : Lossy
  43. Stream size                              : 1.19 GiB (27%)
  44. Language                                 : English
  45. Default                                  : Yes
  46. Forced                                   : No

  47. Menu
  48. 00:00:00.000                             : en:00:00:00.000
  49. 00:06:29.625                             : en:00:06:29.625
  50. 00:11:58.750                             : en:00:11:58.750
  51. 00:18:39.708                             : en:00:18:39.708
  52. 00:22:59.625                             : en:00:22:59.625
  53. 00:26:41.417                             : en:00:26:41.417
  54. 00:32:02.333                             : en:00:32:02.333
  55. 00:36:08.625                             : en:00:36:08.625
  56. 00:40:15.250                             : en:00:40:15.250
  57. 00:45:29.542                             : en:00:45:29.542
  58. 00:49:38.500                             : en:00:49:38.500
  59. 00:57:48.417                             : en:00:57:48.417
  60. 01:02:32.625                             : en:01:02:32.625
  61. 01:07:39.250                             : en:01:07:39.250
  62. 01:12:59.083                             : en:01:12:59.083
  63. 01:19:58.625                             : en:01:19:58.625
  64. 01:24:44.042                             : en:01:24:44.042
  65. 01:33:37.417                             : en:01:33:37.417
  66. 01:39:49.750                             : en:01:39:49.750
  67. 01:45:54.417                             : en:01:45:54.417
复制代码

复制代码

书店/街角的书店 The.Bookshop.2017.LiMiTED.720p.BluRay.x264-VETO 4.37GB-2.jpg






回复

使用道具 举报

懒得打字嘛,点击右侧快捷回复 【右侧内容,后台自定义】
您需要登录后才可以回帖 登录 | 立即加入

本版积分规则

Archiver|小黑屋| 蓝光电影网 |网站地图

Copyright © 2021 Comsenz Inc. Powered by 蓝光电影网

蓝光电影网

本站内容由用户自主分享和转载自互联网,转载目的在于传递更多信息,并不代表本网赞同其观点和对其真实性负责。

如有侵权、违反国家法律政策行为,请联系我们,我们会第一时间及时清除和处理!

举报反馈邮箱:[email protected]

快速回复 返回顶部 返回列表