找回密码

蓝光电影网

查看: 985|回复: 1

[传记] 创业先锋/塔克:其人其梦 Tucker.The.Man.and.His.Dream.1988.720p.BluRay.x264-SPOOKS 4.39GB

[复制链接]
蓝光币
623
发表于 2018-9-15 17:37:35 | 显示全部楼层 |阅读模式

创业先锋/塔克:其人其梦 Tucker.The.Man.and.His.Dream.1988.720p.BluRay.x264-SPOOKS 4.39GB-1.jpg
◎译  名 创业先锋/塔克:其人其梦/美国之梦
◎片  名 Tucker: The Man and His Dream
◎年  代 1988
◎产  地 美国
◎类  别 列传/剧情
◎语  言 英语
◎上映日期 1988-08-12
◎豆瓣评分 7.1/10 from 209 users
◎豆瓣链接 https://movie.douban.com/subject/1296408/
◎片  长 110 分钟
◎导  演 弗朗西斯·福特·科波拉 Francis Ford Coppola
◎主  演 马丁·兰道 Martin Landau
      杰夫·布里吉斯 Jeff Bridges
      琼·艾伦 Joan Allen

◎简  介

  Based on a true story. Shortly after World War II, Preston Tucker is a grandiose schemer with a new dream, to produce the best cars ever made. With the assistance of Abe Karatz and some impressive salesmanship on his own part, he obtains funding and begins to build his factory. The whole movie also has many parallels with director Coppola's own efforts to build a new movie studio of his own.

◎获奖情况

  第61届奥斯卡金像奖  (1989)
  最好男配角(提名) 马丁·兰道
  最好艺术指导(提名) 迪安·塔沃拉里斯 / 阿明·甘兹
  最好打扮设想(提名) 米兰拉·坎农诺

  1. Video
  2. ID                                       : 1
  3. Format                                   : AVC
  4. Format/Info                              : Advanced Video Codec
  5. Format profile                           : [url=/cdn-cgi/l/email-protection][email protected][/url]
  6. Format settings                          : CABAC / 5 Ref Frames
  7. Format settings, CABAC                   : Yes
  8. Format settings, RefFrames               : 5 frames
  9. Codec ID                                 : V_MPEG4/ISO/AVC
  10. Duration                                 : 1 h 50 min
  11. Bit rate                                 : 5 021 kb/s
  12. Width                                    : 1 280 pixels
  13. Height                                   : 536 pixels
  14. Display aspect ratio                     : 2.40:1
  15. Frame rate mode                          : Constant
  16. Frame rate                               : 23.976 (24000/1001) FPS
  17. Color space                              : YUV
  18. Chroma subsampling                       : 4:2:0
  19. Bit depth                                : 8 bits
  20. Scan type                                : Progressive
  21. Bits/(Pixel*Frame)                       : 0.305
  22. Stream size                              : 3.88 GiB (89%)
  23. Writing library                          : x264 core 157 r2932 303c484
  24. Encoding settings                        : cabac=1 / ref=5 / deblock=1:-3:-3 / analyse=0x3:0x133 / me=umh / subme=8 / psy=1 / psy_rd=1.00:0.00 / mixed_ref=1 / me_range=16 / chroma_me=1 / trellis=1 / 8x8dct=1 / cqm=0 / deadzone=21,11 / fast_pskip=0 / chroma_qp_offset=-2 / threads=17 / lookahead_threads=2 / sliced_threads=0 / nr=0 / decimate=1 / interlaced=0 / bluray_compat=0 / constrained_intra=0 / bframes=3 / b_pyramid=2 / b_adapt=1 / b_bias=0 / direct=3 / weightb=1 / open_gop=0 / weightp=2 / keyint=250 / keyint_min=23 / scenecut=40 / intra_refresh=0 / rc_lookahead=50 / rc=2pass / mbtree=1 / bitrate=5021 / ratetol=1.0 / qcomp=0.60 / qpmin=0 / qpmax=69 / qpstep=4 / cplxblur=20.0 / qblur=0.5 / vbv_maxrate=62500 / vbv_bufsize=78125 / nal_hrd=none / filler=0 / ip_ratio=1.40 / aq=1:1.00
  25. Default                                  : Yes
  26. Forced                                   : No

  27. Audio
  28. ID                                       : 2
  29. Format                                   : AC-3
  30. Format/Info                              : Audio Coding 3
  31. Format settings, Endianness              : Big
  32. Codec ID                                 : A_AC3
  33. Duration                                 : 1 h 50 min
  34. Bit rate mode                            : Constant
  35. Bit rate                                 : 640 kb/s
  36. Channel(s)                               : 6 channels
  37. Channel positions                        : Front: L C R, Side: L R, LFE
  38. Sampling rate                            : 48.0 kHz
  39. Frame rate                               : 31.250 FPS (1536 SPF)
  40. Bit depth                                : 16 bits
  41. Compression mode                         : Lossy
  42. Stream size                              : 506 MiB (11%)
  43. Language                                 : English
  44. Service kind                             : Complete Main
  45. Default                                  : Yes
  46. Forced                                   : No

  47. Menu
  48. 00:00:00.000                             : en:00:00:00.000
  49. 00:05:17.192                             : en:00:05:17.192
  50. 00:12:38.174                             : en:00:12:38.174
  51. 00:19:40.971                             : en:00:19:40.971
  52. 00:26:29.296                             : en:00:26:29.296
  53. 00:32:46.089                             : en:00:32:46.089
  54. 00:39:02.590                             : en:00:39:02.590
  55. 00:42:35.803                             : en:00:42:35.803
  56. 00:50:55.010                             : en:00:50:55.010
  57. 00:58:46.523                             : en:00:58:46.523
  58. 01:04:58.019                             : en:01:04:58.019
  59. 01:10:32.395                             : en:01:10:32.395
  60. 01:17:55.713                             : en:01:17:55.713
  61. 01:25:05.434                             : en:01:25:05.434
  62. 01:30:21.249                             : en:01:30:21.249
  63. 01:42:02.658                             : en:01:42:02.658
复制代码

复制代码

创业先锋/塔克:其人其梦 Tucker.The.Man.and.His.Dream.1988.720p.BluRay.x264-SPOOKS 4.39GB-2.jpg






回复

使用道具 举报

懒得打字嘛,点击右侧快捷回复 【右侧内容,后台自定义】
您需要登录后才可以回帖 登录 | 立即加入

本版积分规则

Archiver|小黑屋| 蓝光电影网 |网站地图

Copyright © 2021 Comsenz Inc. Powered by 蓝光电影网

蓝光电影网

本站内容由用户自主分享和转载自互联网,转载目的在于传递更多信息,并不代表本网赞同其观点和对其真实性负责。

如有侵权、违反国家法律政策行为,请联系我们,我们会第一时间及时清除和处理!

举报反馈邮箱:[email protected]

快速回复 返回顶部 返回列表