找回密码

蓝光电影网

查看: 819|回复: 2

[传记] 再见曼哈顿 Ciao.Manhattan.1972.720p.BluRay.x264-SPOOKS 3.28GB

[复制链接]
蓝光币
623
发表于 2018-9-15 17:40:46 | 显示全部楼层 |阅读模式

再会曼哈顿 Ciao.Manhattan.1972.720p.BluRay.x264-SPOOKS 3.28GB-1.jpg
◎译  名 再会曼哈顿
◎片  名 Ciao Manhattan
◎年  代 1972
◎产  地 美国
◎类  别 列传/剧情/恋爱
◎语  言 英语
◎上映日期 1974-07-18
◎豆瓣评分 7.7/10 from 164 users
◎豆瓣链接 https://movie.douban.com/subject/1869467/
◎片  长 84分钟
◎导  演 John Palmer / David Weisman
◎主  演 Edie Sedgwick

◎简  介

  一部关于美国60年月明星Edie Sedgwick的自传电影,完成于Edie死前一周。
  Ciao! Manhattan is a 1972 American avant garde film starring Edie Sedgwick, one of Andy Warhol's Superstars. Although not a documentary, the film centers around a character very closely based on Sedgwick, and deals with the pain of addiction and the lure of fame.

  1. Video
  2. ID                                       : 1
  3. Format                                   : AVC
  4. Format/Info                              : Advanced Video Codec
  5. Format profile                           : [url=/cdn-cgi/l/email-protection][email protected][/url]
  6. Format settings                          : CABAC / 5 Ref Frames
  7. Format settings, CABAC                   : Yes
  8. Format settings, RefFrames               : 5 frames
  9. Codec ID                                 : V_MPEG4/ISO/AVC
  10. Duration                                 : 1 h 30 min
  11. Bit rate                                 : 4 560 kb/s
  12. Width                                    : 1 280 pixels
  13. Height                                   : 720 pixels
  14. Display aspect ratio                     : 16:9
  15. Frame rate mode                          : Constant
  16. Frame rate                               : 23.976 (24000/1001) FPS
  17. Color space                              : YUV
  18. Chroma subsampling                       : 4:2:0
  19. Bit depth                                : 8 bits
  20. Scan type                                : Progressive
  21. Bits/(Pixel*Frame)                       : 0.206
  22. Stream size                              : 2.87 GiB (88%)
  23. Writing library                          : x264 core 157 r2932 303c484
  24. Encoding settings                        : cabac=1 / ref=5 / deblock=1:-3:-3 / analyse=0x3:0x133 / me=umh / subme=8 / psy=1 / psy_rd=1.00:0.00 / mixed_ref=1 / me_range=16 / chroma_me=1 / trellis=1 / 8x8dct=1 / cqm=0 / deadzone=21,11 / fast_pskip=0 / chroma_qp_offset=-2 / threads=22 / lookahead_threads=3 / sliced_threads=0 / nr=0 / decimate=1 / interlaced=0 / bluray_compat=0 / constrained_intra=0 / bframes=3 / b_pyramid=2 / b_adapt=1 / b_bias=0 / direct=3 / weightb=1 / open_gop=0 / weightp=2 / keyint=250 / keyint_min=23 / scenecut=40 / intra_refresh=0 / rc_lookahead=50 / rc=2pass / mbtree=1 / bitrate=4560 / ratetol=1.0 / qcomp=0.60 / qpmin=0 / qpmax=69 / qpstep=4 / cplxblur=20.0 / qblur=0.5 / vbv_maxrate=62500 / vbv_bufsize=78125 / nal_hrd=none / filler=0 / ip_ratio=1.40 / aq=1:1.00
  25. Default                                  : Yes
  26. Forced                                   : No

  27. Audio
  28. ID                                       : 2
  29. Format                                   : AC-3
  30. Format/Info                              : Audio Coding 3
  31. Format settings, Endianness              : Big
  32. Codec ID                                 : A_AC3
  33. Duration                                 : 1 h 30 min
  34. Bit rate mode                            : Constant
  35. Bit rate                                 : 640 kb/s
  36. Channel(s)                               : 2 channels
  37. Channel positions                        : Front: L R
  38. Sampling rate                            : 48.0 kHz
  39. Frame rate                               : 31.250 FPS (1536 SPF)
  40. Bit depth                                : 16 bits
  41. Compression mode                         : Lossy
  42. Stream size                              : 413 MiB (12%)
  43. Language                                 : English
  44. Service kind                             : Complete Main
  45. Default                                  : Yes
  46. Forced                                   : No

  47. Menu
  48. 00:00:00.000                             : en:00:00:00.000
  49. 00:05:15.565                             : en:00:05:15.565
  50. 00:10:58.074                             : en:00:10:58.074
  51. 00:16:28.988                             : en:00:16:28.988
  52. 00:23:16.854                             : en:00:23:16.854
  53. 00:28:13.483                             : en:00:28:13.483
  54. 00:33:21.666                             : en:00:33:21.666
  55. 00:38:47.617                             : en:00:38:47.617
  56. 00:45:08.205                             : en:00:45:08.205
  57. 00:50:39.495                             : en:00:50:39.495
  58. 00:56:14.496                             : en:00:56:14.496
  59. 01:01:12.127                             : en:01:01:12.127
  60. 01:05:25.421                             : en:01:05:25.421
  61. 01:11:51.682                             : en:01:11:51.682
  62. 01:17:24.390                             : en:01:17:24.390
  63. 01:23:23.707                             : en:01:23:23.707
  64. 01:28:51.785                             : en:01:28:51.785
复制代码

复制代码

再会曼哈顿 Ciao.Manhattan.1972.720p.BluRay.x264-SPOOKS 3.28GB-2.jpg




回复

使用道具 举报

懒得打字嘛,点击右侧快捷回复 【右侧内容,后台自定义】
您需要登录后才可以回帖 登录 | 立即加入

本版积分规则

Archiver|小黑屋| 蓝光电影网 |网站地图

Copyright © 2021 Comsenz Inc. Powered by 蓝光电影网

蓝光电影网

本站内容由用户自主分享和转载自互联网,转载目的在于传递更多信息,并不代表本网赞同其观点和对其真实性负责。

如有侵权、违反国家法律政策行为,请联系我们,我们会第一时间及时清除和处理!

举报反馈邮箱:[email protected]

快速回复 返回顶部 返回列表