找回密码

蓝光电影网

查看: 17|回复: 0

[剧情] 全金属外壳/烈血焚城 Full.Metal.Jacket.1987.Directors.AR.1080p.WEBRip.x264-RARBG 2.22GB

[复制链接]
蓝光币
386
发表于 2021-8-20 00:36:04 | 显示全部楼层 |阅读模式


◎译  名 全金属外壳 / 烈血焚城(港) / 金甲战士 / 金甲军队(台)
◎片  名 Full Metal Jacket
◎年  代 1987
◎产  地 英国 / 美国
◎类  别 剧情 / 战争
◎语  言 英语 / 越南语
◎上映日期 1987-06-17
◎IMDb评分  8.3/10 from 652781 users
◎IMDb链接  https://www.imdb.com/title/tt0093058
◎豆瓣评分 8.6/10 from 96005 users
◎豆瓣链接 https://movie.douban.com/subject/1300055/
◎片  长 116 分钟
◎导  演 Stanley Kubrick
◎编  剧 Gustav Hasford / Michael Herr / Stanley Kubrick
◎主  演 Adam Baldwin
       Matthew Modine
       Vincent D'Onofrio
       R. Lee Ermey
       Kevyn Major Howard

◎标  签 战争 | 越战 | 美国 | 库布里克 | 斯坦利·库布里克 | StanleyKubrick | 美国电影 | 1987
◎简  介

  
  越战时代,美军大量征兵。多量年轻人应征参军,在新军营接管“残暴”的练习。“傻瓜”比尔活动神经不发财,经常出错而扳连一切人一路受罚。“小丑”(马修?莫迪恩 Matthew Modine 饰)受命帮助比尔,但比尔还是老出毛病,扳连其他人。大师忍无可忍下打了他一顿,比尔今后变得精神模糊,在新军营结业前夜枪杀教官后吞枪自杀。
  “小丑”随后分到了军队消息组。他在采访中看到了那时的同伴们都已经变得麻痹、残暴。一次,“小丑”随“牛仔”履利用命时,遭到越共狙击手伏击,“牛仔”亦不幸中弹身亡。众人经过一番搜索,击伤了狙击手。“小丑”发现狙击手竟是一个年轻少女。有人发起留下她挣扎而死,“小丑”在少女“杀了我”的请求声中,扣下了扳机。
◎获奖情况  
  第60届奥斯卡金像奖(1988)
  最好改编剧本(提名) 迈克尔·海尔 / 斯坦利·库布里克 / 古斯塔夫·哈斯福德
  第12届日本电影学院奖(1989)
  最好外语片(提名)
  1. Video
  2. ID                                       : 1
  3. Format                                   : AVC
  4. Format/Info                              : Advanced Video Codec
  5. Format profile                           : [email protected]
  6. Format settings                          : CABAC / 4 Ref Frames
  7. Format settings, CABAC                   : Yes
  8. Format settings, Reference frames        : 4 frames
  9. Codec ID                                 : avc1
  10. Codec ID/Info                            : Advanced Video Coding
  11. Duration                                 : 1 h 56 min
  12. Bit rate                                 : 2 500 kb/s
  13. Width                                    : 1 440 pixels
  14. Height                                   : 1 080 pixels
  15. Display aspect ratio                     : 4:3
  16. Frame rate mode                          : Constant
  17. Frame rate                               : 23.976 (23976/1000/189150) FPS
  18. Color space                              : YUV
  19. Chroma subsampling                       : 4:2:0
  20. Bit depth                                : 8 bits
  21. Scan type                                : Progressive
  22. Bits/(Pixel*Frame)                       : 0.067
  23. Stream size                              : 2.03 GiB (92%)
  24. Writing library                          : x264 core 152 r2851M ba24899
  25. Encoding settings                        : cabac=1 / ref=4 / deblock=1:-1:-1 / analyse=0x3:0x113 / me=umh / subme=9 / psy=1 / psy_rd=1.00:0.15 / mixed_ref=1 / me_range=24 / chroma_me=1 / trellis=2 / 8x8dct=1 / cqm=0 / deadzone=21,11 / fast_pskip=1 / chroma_qp_offset=-3 / threads=16 / lookahead_threads=4 / sliced_threads=0 / nr=0 / decimate=1 / interlaced=0 / bluray_compat=0 / constrained_intra=0 / bframes=3 / b_pyramid=2 / b_adapt=2 / b_bias=0 / direct=3 / weightb=1 / open_gop=0 / weightp=2 / keyint=250 / keyint_min=25 / scenecut=40 / intra_refresh=0 / rc_lookahead=50 / rc=2pass / mbtree=1 / bitrate=2500 / ratetol=1.0 / qcomp=0.60 / qpmin=0 / qpmax=69 / qpstep=4 / cplxblur=20.0 / qblur=0.5 / vbv_maxrate=31250 / vbv_bufsize=31250 / nal_hrd=none / filler=0 / ip_ratio=1.40 / aq=3:1.00
  26. Encoded date                             : UTC 2020-07-21 11:37:35
  27. Tagged date                              : UTC 2020-07-21 11:37:35
  28. Codec configuration box                  : avcC
  29. Audio
  30. ID                                       : 2
  31. Format                                   : AAC LC
  32. Format/Info                              : Advanced Audio Codec Low Complexity
  33. Codec ID                                 : mp4a-40-2
  34. Duration                                 : 1 h 56 min
  35. Bit rate mode                            : Constant
  36. Bit rate                                 : 224 kb/s
  37. Channel(s)                               : 6 channels
  38. Channel layout                           : C L R Ls Rs LFE
  39. Sampling rate                            : 48.0 kHz
  40. Frame rate                               : 46.875 FPS (1024 SPF)
  41. Compression mode                         : Lossy
  42. Stream size                              : 187 MiB (8%)
  43. Language                                 : English
  44. Default                                  : Yes
  45. Alternate group                          : 1
  46. Encoded date                             : UTC 2020-07-21 11:37:35
  47. Tagged date                              : UTC 2020-07-21 11:37:35
复制代码






                                       
                                       

                                       
                                       
                                       




回复

使用道具 举报

懒得打字嘛,点击右侧快捷回复 【右侧内容,后台自定义】
您需要登录后才可以回帖 登录 | 立即加入

本版积分规则

Archiver|小黑屋| 蓝光电影网 |网站地图

Copyright © 2021 Comsenz Inc. Powered by 蓝光电影网

蓝光电影网

本站内容由用户自主分享和转载自互联网,转载目的在于传递更多信息,并不代表本网赞同其观点和对其真实性负责。

如有侵权、违反国家法律政策行为,请联系我们,我们会第一时间及时清除和处理!

举报反馈邮箱:[email protected]

快速回复 返回顶部 返回列表