找回密码

蓝光电影网

查看: 15|回复: 0

[剧情] 太阳也是星星 The.Sun.Is.Also.a.Star.2019.1080p.AMZN.WEBRip.DDP5.1.x264-alfaHD 6.14GB

[复制链接]
蓝光币
382
发表于 2021-8-20 00:36:22 | 显示全部楼层 |阅读模式


◎译  名 太阳也是星星
◎片  名 The Sun Is Also A Star
◎年  代 2019
◎产  地 美国
◎类  别 剧情
◎语  言 英语
◎上映日期 2019-05-17(美国)
◎IMDb评分  5.8/10 from 5334 users
◎IMDb链接  https://www.imdb.com/title/tt6423362
◎豆瓣评分 5.7/10 from 352 users
◎豆瓣链接 https://movie.douban.com/subject/30163215/
◎片  长 100分钟
◎导  演 莱·拉索-扬 Ry Russo-Young
◎编  剧 崔茜·奥利弗 Tracy Oliver / 妮古拉·尹 Nicola Yoon
◎主  演 雅拉·沙希迪 Yara Shahidi
       查尔斯·梅尔顿 Charles Melton
       申庚 Keong Sim
       费斯·洛根 Faith Logan
       格本加·阿金纳格贝 Gbenga Akinnagbe
       杰克·崔 Jake Choi
       凯西·史 Cathy Shim
       卡姆鲁斯·约翰逊 Camrus Johnson
       阿纳斯·李 Anais Lee
       凯·戴 Kay Day
       安妮·比萨比亚 Annie Pisapia
       阿西西贝·布拉克 Assibey Blake

◎标  签 恋爱 | 美国 | 移民 | 2019 | 剧情 | 青春 | 美国电影 | 华纳
◎简  介

  
  莱·拉索-扬(《忽然七日》《诸事不顺》)将执导新片《太阳也是星星》(The Sun Is Also a Star),雅拉·莎希迪(《喜新不厌旧》《奸细绍特》)主演。按照Nicola Yoon所著同名畅销小说改编,影片报告生活在纽约的女孩Natasha在家庭被驱逐出境、回抵故乡牙买加的前夜恋爱了,她的适用主义将面临应战。Tracy Oliver(《嗨翻姐妹行》)改编剧本,华纳和米高梅结合出品,北美2019年5月17日上映。
  1. Video
  2. ID                                       : 1
  3. Format                                   : AVC
  4. Format/Info                              : Advanced Video Codec
  5. Format profile                           : [email protected]
  6. Format settings                          : CABAC / 4 Ref Frames
  7. Format settings, CABAC                   : Yes
  8. Format settings, Reference frames        : 4 frames
  9. Codec ID                                 : V_MPEG4/ISO/AVC
  10. Duration                                 : 1 h 40 min
  11. Bit rate mode                            : Constant
  12. Bit rate                                 : 8 136 kb/s
  13. Nominal bit rate                         : 10 000 kb/s
  14. Width                                    : 1 920 pixels
  15. Height                                   : 816 pixels
  16. Display aspect ratio                     : 2.35:1
  17. Frame rate mode                          : Constant
  18. Frame rate                               : 23.976 (24000/1001/189150) FPS
  19. Color space                              : YUV
  20. Chroma subsampling                       : 4:2:0
  21. Bit depth                                : 8 bits
  22. Scan type                                : Progressive
  23. Bits/(Pixel*Frame)                       : 0.217
  24. Stream size                              : 5.70 GiB (93%)
  25. Default                                  : Yes
  26. Forced                                   : No
  27. Color range                              : Limited
  28. Color primaries                          : BT.709
  29. Transfer characteristics                 : BT.709
  30. Matrix coefficients                      : BT.709
  31. Audio
  32. ID                                       : 2
  33. Format                                   : E-AC-3
  34. Format/Info                              : Enhanced AC-3
  35. Commercial name                          : Dolby Digital Plus
  36. Codec ID                                 : A_EAC3
  37. Duration                                 : 1 h 40 min
  38. Bit rate mode                            : Constant
  39. Bit rate                                 : 640 kb/s
  40. Channel(s)                               : 6 channels
  41. Channel layout                           : L R C LFE Ls Rs
  42. Sampling rate                            : 48.0 kHz
  43. Frame rate                               : 31.250 FPS (1536 SPF)
  44. Compression mode                         : Lossy
  45. Stream size                              : 459 MiB (7%)
  46. Language                                 : English
  47. Service kind                             : Complete Main
  48. Default                                  : Yes
  49. Forced                                   : No
  50. Text #1
  51. ID                                       : 3
  52. Format                                   : UTF-8
  53. Codec ID                                 : S_TEXT/UTF8
  54. Codec ID/Info                            : UTF-8 Plain Text
  55. Duration                                 : 1 h 35 min
  56. Bit rate                                 : 54 b/s
  57. Count of elements                        : 1354
  58. Stream size                              : 38.3 KiB (0%)
  59. Language                                 : English
  60. Default                                  : No
  61. Forced                                   : No
  62. Text #2
  63. ID                                       : 4
  64. Format                                   : UTF-8
  65. Codec ID                                 : S_TEXT/UTF8
  66. Codec ID/Info                            : UTF-8 Plain Text
  67. Duration                                 : 1 h 35 min
  68. Bit rate                                 : 59 b/s
  69. Count of elements                        : 1463
  70. Stream size                              : 41.7 KiB (0%)
  71. Title                                    : SDH
  72. Language                                 : English
  73. Default                                  : No
  74. Forced                                   : No
复制代码






                                       
                                       

                                       
                                       
                                       




回复

使用道具 举报

懒得打字嘛,点击右侧快捷回复 【右侧内容,后台自定义】
您需要登录后才可以回帖 登录 | 立即加入

本版积分规则

Archiver|小黑屋| 蓝光电影网 |网站地图

Copyright © 2021 Comsenz Inc. Powered by 蓝光电影网

蓝光电影网

本站内容由用户自主分享和转载自互联网,转载目的在于传递更多信息,并不代表本网赞同其观点和对其真实性负责。

如有侵权、违反国家法律政策行为,请联系我们,我们会第一时间及时清除和处理!

举报反馈邮箱:[email protected]

快速回复 返回顶部 返回列表