找回密码

蓝光电影网

查看: 8|回复: 0

[剧情] 善意谎言 White.Lie.2019.1080p.WEB-DL.DD5.1.H264-FGT 3.34GB

[复制链接]
蓝光币
382
发表于 2021-8-20 00:37:19 | 显示全部楼层 |阅读模式


◎译  名 好心假话
◎片  名 White Lie
◎年  代 2019
◎产  地 加拿大
◎类  别 剧情
◎上映日期 2019-09-07(多伦多电影节)
◎IMDb评分  6.9/10 from 160 users
◎IMDb链接  https://www.imdb.com/title/tt9169036
◎豆瓣评分 0/10 from 0 users
◎豆瓣链接 https://movie.douban.com/subject/34806189/
◎片  长 96分钟
◎导  演 Yonah Lewis / 卡尔文·托马斯 Calvin Thomas
◎编  剧 卡尔文·托马斯 Calvin Thomas / Yonah Lewis
◎主  演 凯西·罗尔 Kacey Rohl
       安珀·安德森 Amber Anderson
       马丁·唐文 Martin Donovan

◎标  签 影 | 四星 | PB-BusanC非比赛展映 |
◎简  介

  
  Having become a campus celebrity after a (fictional) cancer diagnosis, a young woman (Kacey Rohl) struggles to maintain her fabrication in this fearless and emotionally affecting new feature by Calvin Thomas and Yonah Lewis (Amy George, The Oxbow Cure, Spice It Up).
  1. Video
  2. ID                                       : 1
  3. Format                                   : AVC
  4. Format/Info                              : Advanced Video Codec
  5. Format profile                           : [email protected]
  6. Format settings                          : CABAC / 5 Ref Frames
  7. Format settings, CABAC                   : Yes
  8. Format settings, Reference frames        : 5 frames
  9. Codec ID                                 : V_MPEG4/ISO/AVC
  10. Duration                                 : 1 h 36 min
  11. Bit rate                                 : 4 582 kb/s
  12. Width                                    : 1 920 pixels
  13. Height                                   : 802 pixels
  14. Display aspect ratio                     : 2.40:1
  15. Frame rate mode                          : Constant
  16. Frame rate                               : 23.976 FPS
  17. Color space                              : YUV
  18. Chroma subsampling                       : 4:2:0
  19. Bit depth                                : 8 bits
  20. Scan type                                : Progressive
  21. Bits/(Pixel*Frame)                       : 0.124
  22. Stream size                              : 3.08 GiB (92%)
  23. Title                                    : White.Lie.2019.1080p.WEB-DL.DD5.1.H264-FGT
  24. Language                                 : English
  25. Default                                  : Yes
  26. Forced                                   : No
  27. Color range                              : Limited
  28. Color primaries                          : BT.709
  29. Transfer characteristics                 : BT.709
  30. Matrix coefficients                      : BT.709
  31. Audio
  32. ID                                       : 2
  33. Format                                   : AC-3
  34. Format/Info                              : Audio Coding 3
  35. Commercial name                          : Dolby Digital
  36. Codec ID                                 : A_AC3
  37. Duration                                 : 1 h 36 min
  38. Bit rate mode                            : Constant
  39. Bit rate                                 : 384 kb/s
  40. Channel(s)                               : 6 channels
  41. Channel layout                           : L R C LFE Ls Rs
  42. Sampling rate                            : 48.0 kHz
  43. Frame rate                               : 31.250 FPS (1536 SPF)
  44. Bit depth                                : 16 bits
  45. Compression mode                         : Lossy
  46. Stream size                              : 264 MiB (8%)
  47. Title                                    : White.Lie.2019.1080p.WEB-DL.DD5.1.H264-FGT
  48. Language                                 : English
  49. Service kind                             : Complete Main
  50. Default                                  : Yes
  51. Forced                                   : No
  52. Text
  53. ID                                       : 3
  54. Format                                   : UTF-8
  55. Codec ID                                 : S_TEXT/UTF8
  56. Codec ID/Info                            : UTF-8 Plain Text
  57. Duration                                 : 1 h 29 min
  58. Bit rate                                 : 59 b/s
  59. Count of elements                        : 1260
  60. Stream size                              : 39.1 KiB (0%)
  61. Language                                 : English
  62. Default                                  : Yes
  63. Forced                                   : No
  64. Menu
  65. 00:00:00.000                             : en:Chapter 01
  66. 00:11:49.000                             : en:Chapter 02
  67. 00:21:22.000                             : en:Chapter 03
  68. 00:31:53.000                             : en:Chapter 04
  69. 00:40:04.000                             : en:Chapter 05
  70. 00:49:09.000                             : en:Chapter 06
  71. 00:57:15.000                             : en:Chapter 07
  72. 01:07:03.000                             : en:Chapter 08
  73. 01:17:46.000                             : en:Chapter 09
  74. 01:28:44.000                             : en:Chapter 10
  75. 01:33:03.000                             : en:Chapter 11
复制代码






                                       
                                       

                                       
                                       
                                       




回复

使用道具 举报

懒得打字嘛,点击右侧快捷回复 【右侧内容,后台自定义】
您需要登录后才可以回帖 登录 | 立即加入

本版积分规则

Archiver|小黑屋| 蓝光电影网 |网站地图

Copyright © 2021 Comsenz Inc. Powered by 蓝光电影网

蓝光电影网

本站内容由用户自主分享和转载自互联网,转载目的在于传递更多信息,并不代表本网赞同其观点和对其真实性负责。

如有侵权、违反国家法律政策行为,请联系我们,我们会第一时间及时清除和处理!

举报反馈邮箱:[email protected]

快速回复 返回顶部 返回列表