找回密码

蓝光电影网

查看: 11|回复: 0

[剧情] 天呐太棒了/哦耶哦 Yes.God.Yes.2019.1080p.AMZN.WEBRip.DDP5.1.x264-NTG 3.85GB

[复制链接]
蓝光币
386
发表于 2021-8-20 00:38:08 | 显示全部楼层 |阅读模式


◎译  名 天呐,太棒了 / 哦耶,哦 / 是的,天主,是的
◎片  名 Yes, God, Yes
◎年  代 2019
◎产  地 美国
◎类  别 剧情
◎语  言 英语
◎上映日期 2019-03-08(西南偏南电影节) / 2020-07-24(美国)
◎IMDb评分  5.9/10 from 325 users
◎IMDb链接  https://www.imdb.com/title/tt8949056
◎豆瓣评分 0/10 from 0 users
◎豆瓣链接 https://movie.douban.com/subject/33218430/
◎片  长 78分钟
◎导  演 Karen Maine
◎编  剧 Karen Maine
◎主  演 娜塔莉·戴尔 Natalia Dyer
       沃尔夫冈·诺沃格拉茨 Wolfgang Novogratz
       苏珊·布莱克威尔 Susan Blackwell
       艾莉莎·博 Alisha Boe
       唐娜·琳·钱普林 Donna Lynne Champlin
       弗兰切丝卡·雷阿莱 Francesca Reale
       蒂莫西·西蒙斯 Timothy Simons
       Christian Adam
       Myles Evans
       Gavrielle Anne Fontanilla
       Zachary Forsythe
       Gabriella Garcia
       Riley Hough
       Paige Hullett
       Tre'len Johnston
       Matt Lewis

◎标  签 青春 | 美国 | 笑剧 | 剧情 | 电影 | 长大 | 2019 | 美国电影
◎简  介

  
  故事发生在21世纪初,由于收集聊天的兴起,一个天主讲授校的少女发现自己的性认识萌动,一方面要她要尽力抑制自己的愿望怕被天主赏罚,另一方面有些工具是控制不住的。
  1. Video
  2. ID                                       : 1
  3. Format                                   : AVC
  4. Format/Info                              : Advanced Video Codec
  5. Format profile                           : [email protected]
  6. Format settings                          : CABAC / 4 Ref Frames
  7. Format settings, CABAC                   : Yes
  8. Format settings, Reference frames        : 4 frames
  9. Codec ID                                 : V_MPEG4/ISO/AVC
  10. Duration                                 : 1 h 17 min
  11. Bit rate mode                            : Constant
  12. Bit rate                                 : 6 445 kb/s
  13. Nominal bit rate                         : 10 000 kb/s
  14. Width                                    : 1 920 pixels
  15. Height                                   : 1 080 pixels
  16. Display aspect ratio                     : 16:9
  17. Frame rate mode                          : Constant
  18. Frame rate                               : 23.976 (24000/1001/189150) FPS
  19. Color space                              : YUV
  20. Chroma subsampling                       : 4:2:0
  21. Bit depth                                : 8 bits
  22. Scan type                                : Progressive
  23. Bits/(Pixel*Frame)                       : 0.130
  24. Stream size                              : 3.50 GiB (91%)
  25. Default                                  : Yes
  26. Forced                                   : No
  27. Color range                              : Limited
  28. Color primaries                          : BT.709
  29. Transfer characteristics                 : BT.709
  30. Matrix coefficients                      : BT.709
  31. Audio
  32. ID                                       : 2
  33. Format                                   : E-AC-3
  34. Format/Info                              : Enhanced AC-3
  35. Commercial name                          : Dolby Digital Plus
  36. Codec ID                                 : A_EAC3
  37. Duration                                 : 1 h 17 min
  38. Bit rate mode                            : Constant
  39. Bit rate                                 : 640 kb/s
  40. Channel(s)                               : 6 channels
  41. Channel layout                           : L R C LFE Ls Rs
  42. Sampling rate                            : 48.0 kHz
  43. Frame rate                               : 31.250 FPS (1536 SPF)
  44. Compression mode                         : Lossy
  45. Stream size                              : 356 MiB (9%)
  46. Language                                 : English
  47. Service kind                             : Complete Main
  48. Default                                  : Yes
  49. Forced                                   : No
  50. Text #1
  51. ID                                       : 3
  52. Format                                   : UTF-8
  53. Codec ID                                 : S_TEXT/UTF8
  54. Codec ID/Info                            : UTF-8 Plain Text
  55. Duration                                 : 1 h 15 min
  56. Bit rate                                 : 51 b/s
  57. Count of elements                        : 946
  58. Stream size                              : 28.5 KiB (0%)
  59. Language                                 : English
  60. Default                                  : No
  61. Forced                                   : No
  62. Text #2
  63. ID                                       : 4
  64. Format                                   : UTF-8
  65. Codec ID                                 : S_TEXT/UTF8
  66. Codec ID/Info                            : UTF-8 Plain Text
  67. Duration                                 : 1 h 16 min
  68. Bit rate                                 : 55 b/s
  69. Count of elements                        : 1093
  70. Stream size                              : 31.0 KiB (0%)
  71. Title                                    : SDH
  72. Language                                 : English
  73. Default                                  : No
  74. Forced                                   : No
复制代码





                                       
                                       

                                       
                                       
                                       




回复

使用道具 举报

懒得打字嘛,点击右侧快捷回复 【右侧内容,后台自定义】
您需要登录后才可以回帖 登录 | 立即加入

本版积分规则

Archiver|小黑屋| 蓝光电影网 |网站地图

Copyright © 2021 Comsenz Inc. Powered by 蓝光电影网

蓝光电影网

本站内容由用户自主分享和转载自互联网,转载目的在于传递更多信息,并不代表本网赞同其观点和对其真实性负责。

如有侵权、违反国家法律政策行为,请联系我们,我们会第一时间及时清除和处理!

举报反馈邮箱:[email protected]

快速回复 返回顶部 返回列表