找回密码

蓝光电影网

查看: 22|回复: 0

[剧情] 追击杀手 Excessive.Force.II.Force.On.Force.1995.1080p.AMZN.WEBRip.DDP2.0.X264-ABM 8.59GB

[复制链接]
蓝光币
426
发表于 2021-8-20 00:38:21 | 显示全部楼层 |阅读模式


◎译  名 追击杀手
◎片  名 Excessive Force II: Force on Force
◎年  代 1995
◎产  地 美国
◎类  别 剧情 / 行动
◎语  言 英语
◎IMDb评分  4.2/10 from 341 users
◎IMDb链接  https://www.imdb.com/title/tt0112995
◎豆瓣评分 0/10 from 0 users
◎豆瓣链接 https://movie.douban.com/subject/1304949/
◎片  长 88 分钟
◎导  演 乔纳森 温弗里 (Jonathan Winfrey)
◎编  剧 马克 塞维 (Mark Sevi)
◎主  演 Mandingo Warrior
       Bradford Tatum
       David Hugghins

◎标  签 美国 | 1995 | 行动 | 史塔西兰戴尔 | 乔纳森温弗里 | 追击杀手 | 超级武力2 | 以暴制暴
◎简  介

  
  暂无相关剧情先容
  1. Video
  2. ID                                       : 1
  3. Format                                   : AVC
  4. Format/Info                              : Advanced Video Codec
  5. Format profile                           : [email protected]
  6. Format settings                          : CABAC / 4 Ref Frames
  7. Format settings, CABAC                   : Yes
  8. Format settings, Reference frames        : 4 frames
  9. Codec ID                                 : V_MPEG4/ISO/AVC
  10. Duration                                 : 1 h 27 min
  11. Bit rate mode                            : Variable
  12. Bit rate                                 : 13.5 Mb/s
  13. Maximum bit rate                         : 15.0 Mb/s
  14. Width                                    : 1 920 pixels
  15. Height                                   : 1 040 pixels
  16. Display aspect ratio                     : 1.85:1
  17. Frame rate mode                          : Constant
  18. Frame rate                               : 23.976 (24000/1001/189150) FPS
  19. Color space                              : YUV
  20. Chroma subsampling                       : 4:2:0
  21. Bit depth                                : 8 bits
  22. Scan type                                : Progressive
  23. Bits/(Pixel*Frame)                       : 0.282
  24. Stream size                              : 8.28 GiB (96%)
  25. Writing library                          : x264 core 148 r2623 d5b2374
  26. Encoding settings                        : cabac=1 / ref=4 / deblock=1:-1:-1 / analyse=0x3:0x133 / me=umh / subme=9 / psy=1 / psy_rd=1.00:0.15 / mixed_ref=1 / me_range=24 / chroma_me=1 / trellis=2 / 8x8dct=1 / cqm=0 / deadzone=21,11 / fast_pskip=1 / chroma_qp_offset=-3 / threads=32 / lookahead_threads=5 / sliced_threads=0 / nr=150 / decimate=1 / interlaced=0 / bluray_compat=0 / constrained_intra=0 / bframes=8 / b_pyramid=2 / b_adapt=2 / b_bias=0 / direct=3 / weightb=1 / open_gop=0 / weightp=2 / keyint=120 / keyint_min=61 / scenecut=0 / intra_refresh=0 / rc_lookahead=120 / rc=crf / mbtree=1 / crf=18.0 / qcomp=0.60 / qpmin=0 / qpmax=69 / qpstep=4 / vbv_maxrate=15000 / vbv_bufsize=31250 / crf_max=0.0 / nal_hrd=vbr / filler=0 / ip_ratio=1.40 / aq=3:1.00
  27. Language                                 : English
  28. Default                                  : Yes
  29. Forced                                   : No
  30. Color range                              : Limited
  31. Color primaries                          : BT.709
  32. Transfer characteristics                 : BT.709
  33. Matrix coefficients                      : BT.709
  34. Audio
  35. ID                                       : 2
  36. Format                                   : E-AC-3
  37. Format/Info                              : Enhanced AC-3
  38. Commercial name                          : Dolby Digital Plus
  39. Codec ID                                 : A_EAC3
  40. Duration                                 : 1 h 27 min
  41. Bit rate mode                            : Constant
  42. Bit rate                                 : 224 kb/s
  43. Channel(s)                               : 2 channels
  44. Channel layout                           : L R
  45. Sampling rate                            : 48.0 kHz
  46. Frame rate                               : 31.250 FPS (1536 SPF)
  47. Compression mode                         : Lossy
  48. Stream size                              : 141 MiB (2%)
  49. Language                                 : English
  50. Service kind                             : Complete Main
  51. Default                                  : Yes
  52. Forced                                   : No
  53. Text
  54. ID                                       : 3
  55. Format                                   : UTF-8
  56. Codec ID                                 : S_TEXT/UTF8
  57. Codec ID/Info                            : UTF-8 Plain Text
  58. Language                                 : English
  59. Default                                  : No
  60. Forced                                   : No
复制代码






                                       
                                       

                                       
                                       
                                       




回复

使用道具 举报

懒得打字嘛,点击右侧快捷回复 【右侧内容,后台自定义】
您需要登录后才可以回帖 登录 | 立即加入

本版积分规则

Archiver|小黑屋| 蓝光电影网 |网站地图

Copyright © 2021 Comsenz Inc. Powered by 蓝光电影网

蓝光电影网

本站内容由用户自主分享和转载自互联网,转载目的在于传递更多信息,并不代表本网赞同其观点和对其真实性负责。

如有侵权、违反国家法律政策行为,请联系我们,我们会第一时间及时清除和处理!

举报反馈邮箱:[email protected]

快速回复 返回顶部 返回列表