找回密码

蓝光电影网

查看: 18|回复: 0

[剧情] 亦真亦幻 The.Seen.and.Unseen.2017.INDONESIAN.1080p.AMZN.WEBRip.DDP2.0.x264-alfaHD 2.67GB

[复制链接]
蓝光币
386
发表于 2021-8-20 00:39:42 | 显示全部楼层 |阅读模式


◎译  名 亦真亦幻 / The Seen and Unseen / 看见的和看不见的 / 舞吧舞吧,孩子們(台) / 通灵月舞(港)
◎片  名 Sekala Niskala
◎年  代 2017
◎产  地 印度尼西亚
◎类  别 剧情
◎语  言 印尼语
◎上映日期 2017-09-11(多伦多电影节)
◎IMDb评分  7.0/10 from 283 users
◎IMDb链接  https://www.imdb.com/title/tt7215548
◎豆瓣评分 0/10 from 0 users
◎豆瓣链接 https://movie.douban.com/subject/27138555/
◎片  长 83分钟
◎导  演 卡米拉·安迪妮 Kamila Andini
◎编  剧 卡米拉·安迪妮 Kamila Andini
◎主  演 Thaly Titi Kasih
       Ida Bagus Putu Radithya Mahijasena
       Ayu Laksmi
       Ketut Rina
       Happy Salma
       Ni Gusti Ayu Putu Raka Suryaningsih

◎标  签 印尼 | 印度尼西亚 | 2017 | 印度尼西亚电影 | 剧情 | KamilaAndini | HKIFF42 | 2010s
◎简  介

  
  丹德丽和丹德拉是孪生姐弟,弟弟喜好偷供奉在神庙里的鸡蛋返来让姐姐煮。他们每次吃鸡蛋时,姐姐会把蛋黄给弟弟,自己吃卵白。弟弟颅内有个肿块榨取大脑,他会渐渐失明失聪,终极落空一切知觉。弟弟住院,姐姐把小狗偷偷带进医院陪他顽耍,看着弟弟耍皮影,还陪弟弟一路在医院里种稻苗,听他弹奏乐器。随着弟弟病情加重,家里被哀痛的氛围环抱,妈妈时不时以泪洗面。为了让弟弟的病情有所好转,家人们用尽了各类方式:妈妈会抚琴给丹德拉听,丹德丽会陪丹德拉舞蹈。但是,终极奇迹还是没能来临到丹德拉身上。
◎获奖情况  
  第21届上海国际电影节(2018)
  “一带一路”电影周 媒体关注电影人 卡米拉·安迪妮
  1. Video
  2. ID                                       : 1
  3. Format                                   : AVC
  4. Format/Info                              : Advanced Video Codec
  5. Format profile                           : [email protected]
  6. Format settings                          : CABAC / 4 Ref Frames
  7. Format settings, CABAC                   : Yes
  8. Format settings, Reference frames        : 4 frames
  9. Codec ID                                 : V_MPEG4/ISO/AVC
  10. Duration                                 : 1 h 22 min
  11. Bit rate mode                            : Constant
  12. Bit rate                                 : 4 407 kb/s
  13. Nominal bit rate                         : 10 000 kb/s
  14. Width                                    : 1 920 pixels
  15. Height                                   : 872 pixels
  16. Display aspect ratio                     : 2.2:1
  17. Frame rate mode                          : Constant
  18. Frame rate                               : 25.000 FPS
  19. Color space                              : YUV
  20. Chroma subsampling                       : 4:2:0
  21. Bit depth                                : 8 bits
  22. Scan type                                : Progressive
  23. Bits/(Pixel*Frame)                       : 0.105
  24. Stream size                              : 2.54 GiB (95%)
  25. Default                                  : Yes
  26. Forced                                   : No
  27. Color range                              : Limited
  28. Color primaries                          : BT.709
  29. Transfer characteristics                 : BT.709
  30. Matrix coefficients                      : BT.709
  31. Audio
  32. ID                                       : 2
  33. Format                                   : E-AC-3
  34. Format/Info                              : Enhanced AC-3
  35. Commercial name                          : Dolby Digital Plus
  36. Codec ID                                 : A_EAC3
  37. Duration                                 : 1 h 22 min
  38. Bit rate mode                            : Constant
  39. Bit rate                                 : 224 kb/s
  40. Channel(s)                               : 2 channels
  41. Channel layout                           : L R
  42. Sampling rate                            : 48.0 kHz
  43. Frame rate                               : 31.250 FPS (1536 SPF)
  44. Compression mode                         : Lossy
  45. Stream size                              : 132 MiB (5%)
  46. Language                                 : Indonesian
  47. Service kind                             : Complete Main
  48. Default                                  : Yes
  49. Forced                                   : No
  50. Text #1
  51. ID                                       : 3
  52. Format                                   : UTF-8
  53. Codec ID                                 : S_TEXT/UTF8
  54. Codec ID/Info                            : UTF-8 Plain Text
  55. Duration                                 : 1 h 16 min
  56. Bit rate                                 : 11 b/s
  57. Count of elements                        : 243
  58. Stream size                              : 6.40 KiB (0%)
  59. Language                                 : English
  60. Default                                  : No
  61. Forced                                   : No
  62. Text #2
  63. ID                                       : 4
  64. Format                                   : UTF-8
  65. Codec ID                                 : S_TEXT/UTF8
  66. Codec ID/Info                            : UTF-8 Plain Text
  67. Duration                                 : 1 h 16 min
  68. Bit rate                                 : 11 b/s
  69. Count of elements                        : 243
  70. Stream size                              : 6.40 KiB (0%)
  71. Title                                    : SDH
  72. Language                                 : English
  73. Default                                  : No
  74. Forced                                   : No
复制代码






                                       
                                       

                                       
                                       
                                       




回复

使用道具 举报

懒得打字嘛,点击右侧快捷回复 【右侧内容,后台自定义】
您需要登录后才可以回帖 登录 | 立即加入

本版积分规则

Archiver|小黑屋| 蓝光电影网 |网站地图

Copyright © 2021 Comsenz Inc. Powered by 蓝光电影网

蓝光电影网

本站内容由用户自主分享和转载自互联网,转载目的在于传递更多信息,并不代表本网赞同其观点和对其真实性负责。

如有侵权、违反国家法律政策行为,请联系我们,我们会第一时间及时清除和处理!

举报反馈邮箱:[email protected]

快速回复 返回顶部 返回列表