找回密码

蓝光电影网

查看: 9|回复: 0

[剧情] 扬基的骄傲 The.Pride.of.The.Yankees.1942.1080p.WEBRip.x264-RARBG 2.46GB

[复制链接]
蓝光币
382
发表于 2021-8-20 00:39:57 | 显示全部楼层 |阅读模式


◎译  名 扬基的自豪
◎片  名 The Pride of the Yankees
◎年  代 1942
◎产  地 美国
◎类  别 剧情 / 恋爱 / 家庭 / 列传 / 活动
◎语  言 英语
◎上映日期 1948-12-02
◎IMDb评分  7.7/10 from 9592 users
◎IMDb链接  https://www.imdb.com/title/tt0035211
◎豆瓣评分 7.8/10 from 157 users
◎豆瓣链接 https://movie.douban.com/subject/1296137/
◎片  长 128 分钟
◎导  演 山姆·伍德 Sam Wood
◎编  剧 凯西·罗宾逊 Casey Robinson / 赫尔曼.曼切维兹 Herman J. Mankiewicz / 乔·斯沃林 Jo Swerling
◎主  演 加里·库柏 Gary Cooper
       特雷莎·怀特 Teresa Wright
       Babe Ruth
       沃尔特·布伦南 Walter Brennan
       丹·德亚 Dan Duryea
       Elsa Janssen
       Ludwig St?ssel
       Virginia Gilmore
       Bill Dickey
       Ernie Adams
       皮埃尔·沃特金斯 Pierre Watkin
       哈利·哈维 Harry Harvey
       Bob Meusel
       Mark Koenig
       Bill Stern
       Addison Richards
       Hardie Albright
       George Lessey

◎标  签 美国 | 体育 | 励志 | 列传 | 美国电影 | 棒球 | 1940s | GaryCooper
◎简  介

  
  Gary Cooper plays Lou Gehrig, the first baseman for the Yanks who suffered from a crippling and incurable disease. Even when Gehrig was a student at Columbia University, the press had already pegged him as a top ballplayer. Soon the New York Yankees selected Gehrig for their lineup, and he became an overnight sensation on the baseball diamond. But this dedicated player--who had never missed a game once he stepped onto a Major League Baseball field--suddenly fell ill with a mysterious disease. As his body began to fail him, Gehrig had to say good-bye to the fans who idolized him and to the sport he loved so dearly. The film's final scene is a deeply moving portrait of human courage. Also not to be missed is Babe Ruth’s cameo appearance as himself. Cooper’s performance is outstanding, measuring up to the drama that surrounded the real-life events. THE PRIDE OF THE YANKEEES remains one of the greatest biopics ever filmed, in addition to being perhaps the best sports film of the 20th century.
◎获奖情况  
  第15届奥斯卡金像奖(1943)
  最好影片(提名)
  最好男配角(提名) 加里·库珀
  最好女配角(提名) 特雷莎·怀特
  最好原创故事(提名) 保罗·加利科
  最好编剧(提名) 赫尔曼·曼凯维奇 / 乔·斯沃林
  黑白片最好摄影(提名) 鲁道夫·马泰
  最好剪辑 Daniel Mandell
  最好殊效(提名) Jack Cosgrove / 托马斯·T·莫尔顿 / Ray Binger
  最好录音(提名) 托马斯·T·莫尔顿
  黑白片最好艺术指导和室内布景(提名) Perry Ferguson / 霍华德·布里斯托尔
  剧情/笑剧片最好配乐(提名) 雷·哈林
  1. Video
  2. ID                                       : 1
  3. Format                                   : AVC
  4. Format/Info                              : Advanced Video Codec
  5. Format profile                           : [email protected]
  6. Format settings                          : CABAC / 4 Ref Frames
  7. Format settings, CABAC                   : Yes
  8. Format settings, Reference frames        : 4 frames
  9. Codec ID                                 : avc1
  10. Codec ID/Info                            : Advanced Video Coding
  11. Duration                                 : 2 h 8 min
  12. Bit rate                                 : 2 500 kb/s
  13. Width                                    : 1 440 pixels
  14. Height                                   : 1 080 pixels
  15. Display aspect ratio                     : 4:3
  16. Frame rate mode                          : Constant
  17. Frame rate                               : 23.976 (23976/1000/189150) FPS
  18. Color space                              : YUV
  19. Chroma subsampling                       : 4:2:0
  20. Bit depth                                : 8 bits
  21. Scan type                                : Progressive
  22. Bits/(Pixel*Frame)                       : 0.067
  23. Stream size                              : 2.25 GiB (92%)
  24. Writing library                          : x264 core 152 r2851M ba24899
  25. Encoding settings                        : cabac=1 / ref=4 / deblock=1:-1:-1 / analyse=0x3:0x113 / me=umh / subme=9 / psy=1 / psy_rd=1.00:0.15 / mixed_ref=1 / me_range=24 / chroma_me=1 / trellis=2 / 8x8dct=1 / cqm=0 / deadzone=21,11 / fast_pskip=1 / chroma_qp_offset=-3 / threads=16 / lookahead_threads=4 / sliced_threads=0 / nr=0 / decimate=1 / interlaced=0 / bluray_compat=0 / constrained_intra=0 / bframes=3 / b_pyramid=2 / b_adapt=2 / b_bias=0 / direct=3 / weightb=1 / open_gop=0 / weightp=2 / keyint=250 / keyint_min=25 / scenecut=40 / intra_refresh=0 / rc_lookahead=50 / rc=2pass / mbtree=1 / bitrate=2500 / ratetol=1.0 / qcomp=0.60 / qpmin=0 / qpmax=69 / qpstep=4 / cplxblur=20.0 / qblur=0.5 / vbv_maxrate=31250 / vbv_bufsize=31250 / nal_hrd=none / filler=0 / ip_ratio=1.40 / aq=3:1.00
  26. Encoded date                             : UTC 2020-07-23 21:41:00
  27. Tagged date                              : UTC 2020-07-23 21:41:00
  28. Codec configuration box                  : avcC
  29. Audio
  30. ID                                       : 2
  31. Format                                   : AAC LC
  32. Format/Info                              : Advanced Audio Codec Low Complexity
  33. Codec ID                                 : mp4a-40-2
  34. Duration                                 : 2 h 8 min
  35. Duration_LastFrame                       : -11 ms
  36. Bit rate mode                            : Constant
  37. Bit rate                                 : 224 kb/s
  38. Channel(s)                               : 2 channels
  39. Channel layout                           : L R
  40. Sampling rate                            : 48.0 kHz
  41. Frame rate                               : 46.875 FPS (1024 SPF)
  42. Compression mode                         : Lossy
  43. Stream size                              : 206 MiB (8%)
  44. Language                                 : English
  45. Default                                  : Yes
  46. Alternate group                          : 1
  47. Encoded date                             : UTC 2020-07-23 21:41:00
  48. Tagged date                              : UTC 2020-07-23 21:41:00
复制代码






                                       
                                       

                                       
                                       
                                       




回复

使用道具 举报

懒得打字嘛,点击右侧快捷回复 【右侧内容,后台自定义】
您需要登录后才可以回帖 登录 | 立即加入

本版积分规则

Archiver|小黑屋| 蓝光电影网 |网站地图

Copyright © 2021 Comsenz Inc. Powered by 蓝光电影网

蓝光电影网

本站内容由用户自主分享和转载自互联网,转载目的在于传递更多信息,并不代表本网赞同其观点和对其真实性负责。

如有侵权、违反国家法律政策行为,请联系我们,我们会第一时间及时清除和处理!

举报反馈邮箱:[email protected]

快速回复 返回顶部 返回列表