找回密码

蓝光电影网

查看: 15|回复: 0

[剧情] 讲台深处 Beyond.the.Blackboard.2011.1080p.AMZN.WEBRip.DDP2.0.x264-alfaHD 6.17GB

[复制链接]
蓝光币
382
发表于 2021-8-20 00:40:22 | 显示全部楼层 |阅读模式


◎译  名 讲台深处 / Let Them Shine
◎片  名 Beyond the Blackboard
◎年  代 2011
◎产  地 美国
◎类  别 剧情
◎语  言 英语
◎上映日期 2011-04-24(美国)
◎IMDb评分  7.7/10 from 1907 users
◎IMDb链接  https://www.imdb.com/title/tt1699225
◎豆瓣评分 8.2/10 from 582 users
◎豆瓣链接 https://movie.douban.com/subject/5313081/
◎片  长 95分钟
◎导  演 Jeff Bleckner
◎编  剧 Camille Thomasson / Stacey Book
◎主  演 艾米丽·万凯普 Emily VanCamp
       斯蒂夫·泰利 Steve Talley
       Timothy Busfield
       Julio Oscar Mechoso
       绮尔斯腾·瓦伦 Kiersten Warren

◎标  签 美国 | 励志 | 教育 | 教员 | 长大 | 校园 | 2011 | 剧情
◎简  介

  
  贝斯(艾米丽·万凯普 Emily VanCamp 饰)从小就渴望成为一位教师,大学结业后,她获得了一个机遇,前往流浪汉出亡地点那边执教。虽然贝斯历来都没有想过自己的胡想会以这样一种方式成真,但她还是劲头渐渐的走上了讲台。
  理想虽然饱满,但现实却是残暴的,出亡所里,只要一间课堂供贝斯利用,而她要负责的,是整整六个年级的门生。频频蒙受挫折的贝斯打起了放弃的主张,此时她的丈夫布兰登(Colin Baiocchi 饰)果断的站在了妻子的背后,支持激励着她。在布兰登的帮助下,贝斯重新粉刷安插了教师,还招收了一个名叫尼尔森的流浪汉成为了美术教员,这个小小的黉舍正在走上正轨。
  1. Video
  2. ID                                       : 1
  3. Format                                   : AVC
  4. Format/Info                              : Advanced Video Codec
  5. Format profile                           : [email protected]
  6. Format settings                          : CABAC / 4 Ref Frames
  7. Format settings, CABAC                   : Yes
  8. Format settings, Reference frames        : 4 frames
  9. Codec ID                                 : V_MPEG4/ISO/AVC
  10. Duration                                 : 1 h 37 min
  11. Bit rate mode                            : Constant
  12. Bit rate                                 : 8 868 kb/s
  13. Nominal bit rate                         : 10 000 kb/s
  14. Width                                    : 1 920 pixels
  15. Height                                   : 1 080 pixels
  16. Display aspect ratio                     : 16:9
  17. Frame rate mode                          : Constant
  18. Frame rate                               : 23.976 (24000/1001/189150) FPS
  19. Color space                              : YUV
  20. Chroma subsampling                       : 4:2:0
  21. Bit depth                                : 8 bits
  22. Scan type                                : Progressive
  23. Bits/(Pixel*Frame)                       : 0.178
  24. Stream size                              : 6.01 GiB (98%)
  25. Default                                  : Yes
  26. Forced                                   : No
  27. Color range                              : Limited
  28. Color primaries                          : BT.709
  29. Transfer characteristics                 : BT.709
  30. Matrix coefficients                      : BT.709
  31. Audio
  32. ID                                       : 2
  33. Format                                   : E-AC-3
  34. Format/Info                              : Enhanced AC-3
  35. Commercial name                          : Dolby Digital Plus
  36. Codec ID                                 : A_EAC3
  37. Duration                                 : 1 h 37 min
  38. Bit rate mode                            : Constant
  39. Bit rate                                 : 224 kb/s
  40. Channel(s)                               : 2 channels
  41. Channel layout                           : L R
  42. Sampling rate                            : 48.0 kHz
  43. Frame rate                               : 31.250 FPS (1536 SPF)
  44. Compression mode                         : Lossy
  45. Stream size                              : 156 MiB (2%)
  46. Language                                 : English
  47. Service kind                             : Complete Main
  48. Default                                  : Yes
  49. Forced                                   : No
  50. Text #1
  51. ID                                       : 3
  52. Format                                   : UTF-8
  53. Codec ID                                 : S_TEXT/UTF8
  54. Codec ID/Info                            : UTF-8 Plain Text
  55. Duration                                 : 1 h 34 min
  56. Bit rate                                 : 72 b/s
  57. Count of elements                        : 1852
  58. Stream size                              : 50.4 KiB (0%)
  59. Language                                 : English
  60. Default                                  : No
  61. Forced                                   : No
  62. Text #2
  63. ID                                       : 4
  64. Format                                   : UTF-8
  65. Codec ID                                 : S_TEXT/UTF8
  66. Codec ID/Info                            : UTF-8 Plain Text
  67. Duration                                 : 1 h 34 min
  68. Bit rate                                 : 72 b/s
  69. Count of elements                        : 1855
  70. Stream size                              : 50.4 KiB (0%)
  71. Title                                    : SDH
  72. Language                                 : English
  73. Default                                  : No
  74. Forced                                   : No
复制代码






                                       
                                       

                                       
                                       
                                       




回复

使用道具 举报

懒得打字嘛,点击右侧快捷回复 【右侧内容,后台自定义】
您需要登录后才可以回帖 登录 | 立即加入

本版积分规则

Archiver|小黑屋| 蓝光电影网 |网站地图

Copyright © 2021 Comsenz Inc. Powered by 蓝光电影网

蓝光电影网

本站内容由用户自主分享和转载自互联网,转载目的在于传递更多信息,并不代表本网赞同其观点和对其真实性负责。

如有侵权、违反国家法律政策行为,请联系我们,我们会第一时间及时清除和处理!

举报反馈邮箱:[email protected]

快速回复 返回顶部 返回列表