找回密码

蓝光电影网

查看: 12|回复: 0

[剧情] 勇敢的护士 The.Courageous.Heart.of.Irena.Sendler.2009.1080p.AMZN.WEBRip.DDP5.1.x264-alfaHD 6.83GB

[复制链接]
蓝光币
386
发表于 2021-8-20 00:40:43 | 显示全部楼层 |阅读模式


◎译  名 勇敢的护士 / Miss Irena's Children
◎片  名 The Courageous Heart of Irena Sendler
◎年  代 2009
◎产  地 美国
◎类  别 剧情 / 列传 / 战争
◎语  言 英语 / 俄语 / 德语 / Latvian
◎上映日期 2009-04-19
◎IMDb评分  7.2/10 from 3733 users
◎IMDb链接  https://www.imdb.com/title/tt1010278
◎豆瓣评分 7.7/10 from 320 users
◎豆瓣链接 https://movie.douban.com/subject/3074506/
◎片  长 95 分钟
◎导  演 John Kent Harrison
◎编  剧 John Kent Harrison / Larry Spagnola
◎主  演 安娜·帕奎因 Anna Paquin
       马西娅·盖伊·哈登 Marcia Gay Harden
       高兰·维斯耶克 Goran Visnjic
       内森奈尔·帕克 Nathaniel Parker

◎标  签 二战 | 战争 | 犹太人 | 美国 | 人性 | 列传 | 剧情 | 美国电影
◎简  介

  
  电影描写在二战时代,波兰护士与地下工作者Irena Sendler,操纵职务之便收支犹太人管束区,将2500个犹太儿童偷渡出境的故事。
◎获奖情况  
  第67届金球奖(2010)
  电视类 限制剧/电视电影最好女配角(提名) 安娜·帕奎因
  1. Video
  2. ID                                       : 1
  3. Format                                   : AVC
  4. Format/Info                              : Advanced Video Codec
  5. Format profile                           : [email protected]
  6. Format settings                          : CABAC / 4 Ref Frames
  7. Format settings, CABAC                   : Yes
  8. Format settings, Reference frames        : 4 frames
  9. Codec ID                                 : V_MPEG4/ISO/AVC
  10. Duration                                 : 1 h 35 min
  11. Bit rate mode                            : Constant
  12. Bit rate                                 : 10 000 kb/s
  13. Width                                    : 1 920 pixels
  14. Height                                   : 1 080 pixels
  15. Display aspect ratio                     : 16:9
  16. Frame rate mode                          : Constant
  17. Frame rate                               : 23.976 (24000/1001/189150) FPS
  18. Color space                              : YUV
  19. Chroma subsampling                       : 4:2:0
  20. Bit depth                                : 8 bits
  21. Scan type                                : Progressive
  22. Bits/(Pixel*Frame)                       : 0.201
  23. Stream size                              : 6.40 GiB (94%)
  24. Default                                  : Yes
  25. Forced                                   : No
  26. Color range                              : Limited
  27. Color primaries                          : BT.709
  28. Transfer characteristics                 : BT.709
  29. Matrix coefficients                      : BT.709
  30. Audio
  31. ID                                       : 2
  32. Format                                   : E-AC-3
  33. Format/Info                              : Enhanced AC-3
  34. Commercial name                          : Dolby Digital Plus
  35. Codec ID                                 : A_EAC3
  36. Duration                                 : 1 h 35 min
  37. Bit rate mode                            : Constant
  38. Bit rate                                 : 640 kb/s
  39. Channel(s)                               : 6 channels
  40. Channel layout                           : L R C LFE Ls Rs
  41. Sampling rate                            : 48.0 kHz
  42. Frame rate                               : 31.250 FPS (1536 SPF)
  43. Compression mode                         : Lossy
  44. Stream size                              : 439 MiB (6%)
  45. Language                                 : English
  46. Service kind                             : Complete Main
  47. Default                                  : Yes
  48. Forced                                   : No
  49. Text #1
  50. ID                                       : 3
  51. Format                                   : UTF-8
  52. Codec ID                                 : S_TEXT/UTF8
  53. Codec ID/Info                            : UTF-8 Plain Text
  54. Duration                                 : 1 h 33 min
  55. Bit rate                                 : 45 b/s
  56. Count of elements                        : 1224
  57. Stream size                              : 31.5 KiB (0%)
  58. Language                                 : English
  59. Default                                  : No
  60. Forced                                   : No
  61. Text #2
  62. ID                                       : 4
  63. Format                                   : UTF-8
  64. Codec ID                                 : S_TEXT/UTF8
  65. Codec ID/Info                            : UTF-8 Plain Text
  66. Duration                                 : 1 h 33 min
  67. Bit rate                                 : 50 b/s
  68. Count of elements                        : 1411
  69. Stream size                              : 34.9 KiB (0%)
  70. Title                                    : SDH
  71. Language                                 : English
  72. Default                                  : No
  73. Forced                                   : No
复制代码





                                       
                                       

                                       
                                       
                                       




回复

使用道具 举报

懒得打字嘛,点击右侧快捷回复 【右侧内容,后台自定义】
您需要登录后才可以回帖 登录 | 立即加入

本版积分规则

Archiver|小黑屋| 蓝光电影网 |网站地图

Copyright © 2021 Comsenz Inc. Powered by 蓝光电影网

蓝光电影网

本站内容由用户自主分享和转载自互联网,转载目的在于传递更多信息,并不代表本网赞同其观点和对其真实性负责。

如有侵权、违反国家法律政策行为,请联系我们,我们会第一时间及时清除和处理!

举报反馈邮箱:[email protected]

快速回复 返回顶部 返回列表