找回密码

蓝光电影网

查看: 15|回复: 0

[剧情] 强尼不是我 My.Name.Aint.Johnny.2008.PORTUGUESE.1080p.AMZN.WEBRip.DDP2.0.x264-alfaHD 8.48GB

[复制链接]
蓝光币
386
发表于 2021-8-20 00:40:46 | 显示全部楼层 |阅读模式


◎译  名 强尼不是我 / Meu Nome N?o é Johnny
◎片  名 My name isn't Johnny
◎年  代 2008
◎产  地 巴西
◎类  别 剧情 / 犯罪
◎语  言 葡萄牙语
◎上映日期 2008
◎IMDb评分  7.2/10 from 6379 users
◎IMDb链接  https://www.imdb.com/title/tt1092016
◎豆瓣评分 0/10 from 0 users
◎豆瓣链接 https://movie.douban.com/subject/4257214/
◎片  长 124 分钟
◎导  演 Mauro Lima
◎主  演 赛尔顿·梅罗 Selton Mello
       Cléo Pires
       Giulio Lopes

◎标  签 巴西 | 青春 | 迅雷离线 | 国家_巴西
◎简  介

  
  这是一个按照Jo?o Guilherme Estrella ("强尼")的实在故事而改编的电影,报告1990年头,一其中产阶级的小康份子强尼忽然一时兴起跟毒枭Rio de Janeiro做起了可卡因买卖.
  1. Video
  2. ID                                       : 1
  3. Format                                   : AVC
  4. Format/Info                              : Advanced Video Codec
  5. Format profile                           : [email protected]
  6. Format settings                          : CABAC / 4 Ref Frames
  7. Format settings, CABAC                   : Yes
  8. Format settings, Reference frames        : 4 frames
  9. Codec ID                                 : V_MPEG4/ISO/AVC
  10. Duration                                 : 2 h 5 min
  11. Bit rate mode                            : Constant
  12. Bit rate                                 : 9 478 kb/s
  13. Nominal bit rate                         : 10 000 kb/s
  14. Width                                    : 1 920 pixels
  15. Height                                   : 1 080 pixels
  16. Display aspect ratio                     : 16:9
  17. Frame rate mode                          : Constant
  18. Frame rate                               : 23.976 (24000/1001/189150) FPS
  19. Color space                              : YUV
  20. Chroma subsampling                       : 4:2:0
  21. Bit depth                                : 8 bits
  22. Scan type                                : Progressive
  23. Bits/(Pixel*Frame)                       : 0.191
  24. Stream size                              : 8.28 GiB (98%)
  25. Default                                  : Yes
  26. Forced                                   : No
  27. Color range                              : Limited
  28. Color primaries                          : BT.709
  29. Transfer characteristics                 : BT.709
  30. Matrix coefficients                      : BT.709
  31. Audio
  32. ID                                       : 2
  33. Format                                   : E-AC-3
  34. Format/Info                              : Enhanced AC-3
  35. Commercial name                          : Dolby Digital Plus
  36. Codec ID                                 : A_EAC3
  37. Duration                                 : 2 h 5 min
  38. Bit rate mode                            : Constant
  39. Bit rate                                 : 224 kb/s
  40. Channel(s)                               : 2 channels
  41. Channel layout                           : L R
  42. Sampling rate                            : 48.0 kHz
  43. Frame rate                               : 31.250 FPS (1536 SPF)
  44. Compression mode                         : Lossy
  45. Stream size                              : 200 MiB (2%)
  46. Language                                 : Portuguese
  47. Service kind                             : Complete Main
  48. Default                                  : Yes
  49. Forced                                   : No
  50. Text #1
  51. ID                                       : 3
  52. Format                                   : UTF-8
  53. Codec ID                                 : S_TEXT/UTF8
  54. Codec ID/Info                            : UTF-8 Plain Text
  55. Duration                                 : 2 h 3 min
  56. Bit rate                                 : 56 b/s
  57. Count of elements                        : 1422
  58. Stream size                              : 51.0 KiB (0%)
  59. Language                                 : English
  60. Default                                  : No
  61. Forced                                   : No
  62. Text #2
  63. ID                                       : 4
  64. Format                                   : UTF-8
  65. Codec ID                                 : S_TEXT/UTF8
  66. Codec ID/Info                            : UTF-8 Plain Text
  67. Duration                                 : 2 h 3 min
  68. Bit rate                                 : 60 b/s
  69. Count of elements                        : 1473
  70. Stream size                              : 54.8 KiB (0%)
  71. Language                                 : Spanish
  72. Default                                  : No
  73. Forced                                   : No
复制代码






                                       
                                       

                                       
                                       
                                       




回复

使用道具 举报

懒得打字嘛,点击右侧快捷回复 【右侧内容,后台自定义】
您需要登录后才可以回帖 登录 | 立即加入

本版积分规则

Archiver|小黑屋| 蓝光电影网 |网站地图

Copyright © 2021 Comsenz Inc. Powered by 蓝光电影网

蓝光电影网

本站内容由用户自主分享和转载自互联网,转载目的在于传递更多信息,并不代表本网赞同其观点和对其真实性负责。

如有侵权、违反国家法律政策行为,请联系我们,我们会第一时间及时清除和处理!

举报反馈邮箱:[email protected]

快速回复 返回顶部 返回列表