找回密码

蓝光电影网

查看: 13|回复: 0

[剧情] 母亲的小帮手 Mothers.Little.Helpers.2019.1080p.AMZN.WEBRip.DDP5.1.x264-iKA 5.64GB

[复制链接]
蓝光币
382
发表于 2021-8-20 00:44:28 | 显示全部楼层 |阅读模式


◎译  名 母亲的小帮手
◎片  名 Mother's Little Helpers
◎年  代 2019
◎产  地 美国
◎类  别 剧情 / 笑剧 / 音乐 / 家庭
◎语  言 英语
◎上映日期 2019-03-19(美国)
◎IMDb评分  6.1/10 from 163 users
◎IMDb链接  https://www.imdb.com/title/tt9100838
◎豆瓣评分 0/10 from 0 users
◎豆瓣链接 https://movie.douban.com/subject/34935885/
◎片  长 99分钟
◎导  演 Kestrin Pantera
◎编  剧 Kestrin Pantera
◎主  演 布瑞达·伍尔 Breeda Wool
       大卫·君图力 David Giuntoli
       Kestrin Pantera
       米拉娜·薇恩翠 Milana Vayntrub
       山姆·利特菲尔德 Sam Littlefield
       Melanie Hutsell
       Cool Benson

◎标  签 美(加)国电影 | 剧情 | 2019
◎简  介

  
  母亲的小帮手是一个家庭剧,报告四个成年兄弟姐妹,他们不情愿地回家,在极端疾病的暮色中,与被迫躺着的母亲说再会。它基于这样的条件,即不管谁死去,我们总是能找到一种方式来让我们成为我们的一切。
  1. Video
  2. ID                                       : 1
  3. Format                                   : AVC
  4. Format/Info                              : Advanced Video Codec
  5. Format profile                           : [email protected]
  6. Format settings                          : CABAC / 4 Ref Frames
  7. Format settings, CABAC                   : Yes
  8. Format settings, Reference frames        : 4 frames
  9. Codec ID                                 : V_MPEG4/ISO/AVC
  10. Duration                                 : 1 h 33 min
  11. Bit rate mode                            : Constant
  12. Bit rate                                 : 8 024 kb/s
  13. Nominal bit rate                         : 10 000 kb/s
  14. Width                                    : 1 920 pixels
  15. Height                                   : 1 080 pixels
  16. Display aspect ratio                     : 16:9
  17. Frame rate mode                          : Constant
  18. Frame rate                               : 23.976 (24000/1001/189150) FPS
  19. Color space                              : YUV
  20. Chroma subsampling                       : 4:2:0
  21. Bit depth                                : 8 bits
  22. Scan type                                : Progressive
  23. Bits/(Pixel*Frame)                       : 0.161
  24. Stream size                              : 5.22 GiB (93%)
  25. Default                                  : Yes
  26. Forced                                   : No
  27. Color range                              : Limited
  28. Color primaries                          : BT.709
  29. Transfer characteristics                 : BT.709
  30. Matrix coefficients                      : BT.709
  31. Audio
  32. ID                                       : 2
  33. Format                                   : E-AC-3
  34. Format/Info                              : Enhanced AC-3
  35. Commercial name                          : Dolby Digital Plus
  36. Codec ID                                 : A_EAC3
  37. Duration                                 : 1 h 33 min
  38. Bit rate mode                            : Constant
  39. Bit rate                                 : 640 kb/s
  40. Channel(s)                               : 6 channels
  41. Channel layout                           : L R C LFE Ls Rs
  42. Sampling rate                            : 48.0 kHz
  43. Frame rate                               : 31.250 FPS (1536 SPF)
  44. Compression mode                         : Lossy
  45. Stream size                              : 427 MiB (7%)
  46. Language                                 : English
  47. Service kind                             : Complete Main
  48. Default                                  : Yes
  49. Forced                                   : No
  50. Text
  51. ID                                       : 3
  52. Format                                   : UTF-8
  53. Codec ID                                 : S_TEXT/UTF8
  54. Codec ID/Info                            : UTF-8 Plain Text
  55. Duration                                 : 1 h 32 min
  56. Bit rate                                 : 70 b/s
  57. Count of elements                        : 1303
  58. Stream size                              : 48.3 KiB (0%)
  59. Title                                    : SDH
  60. Language                                 : English
  61. Default                                  : No
  62. Forced                                   : No
复制代码





                                       
                                       

                                       
                                       
                                       




回复

使用道具 举报

懒得打字嘛,点击右侧快捷回复 【右侧内容,后台自定义】
您需要登录后才可以回帖 登录 | 立即加入

本版积分规则

Archiver|小黑屋| 蓝光电影网 |网站地图

Copyright © 2021 Comsenz Inc. Powered by 蓝光电影网

蓝光电影网

本站内容由用户自主分享和转载自互联网,转载目的在于传递更多信息,并不代表本网赞同其观点和对其真实性负责。

如有侵权、违反国家法律政策行为,请联系我们,我们会第一时间及时清除和处理!

举报反馈邮箱:[email protected]

快速回复 返回顶部 返回列表