找回密码

蓝光电影网

查看: 14|回复: 0

[剧情] 葡萄牙女人 A.Portuguesa.2018.PORTUGUESE.1080p.WEBRip.x264-VXT 2.62GB

[复制链接]
蓝光币
386
发表于 2021-8-20 00:44:34 | 显示全部楼层 |阅读模式


◎译  名 葡萄牙女人 / The Portuguese Woman / 菩提树下花飘零(港)
◎片  名 A Portuguesa
◎年  代 2018
◎产  地 葡萄牙
◎类  别 剧情
◎语  言 葡萄牙语 / 法语 / 德语
◎上映日期 2019-02(柏林电影节)
◎IMDb评分  6.5/10 from 156 users
◎IMDb链接  https://www.imdb.com/title/tt7746590
◎豆瓣评分 0/10 from 0 users
◎豆瓣链接 https://movie.douban.com/subject/30422405/
◎片  长 138分钟
◎导  演 丽塔·阿齐维多·戈麦斯 Rita Azevedo Gomes
◎编  剧 丽塔·阿齐维多·戈麦斯 Rita Azevedo Gomes / Robert Musil
◎主  演 Clara Riedenstein
       马塞洛·乌戈盖 Marcello Urgeghe
       英格丽·卡文 Ingrid Caven
       Rita Dur?o
       皮埃尔·雷昂 Pierre Léon
       约奥·维森特·德·卡斯特罗 Jo?o Vicente de Castro
       Luna Picoli-Truffaut

◎标  签 葡萄牙 | 2019 | 剧情 | 葡萄牙电影 | 柏林电影节 | 女性 | 历史剧 | 恋爱
◎简  介

  
  在文化與野蠻對峙的時代,與特倫特主教爭戰多年的將軍,遠赴葡萄牙娶妻生子後,急不及待重返戰場。妻子靜守孤堡十一年,歸來是身心俱殘的丈夫,在漫天蜚语中,灭亡在床榻悄悄等待?導演高美斯以恍如彼得布勒哲爾的古典畫風,繪出羅拔穆齊爾同名故事的沉澱哲思,於群山縈繞的迷霧裏,窺看人沉沦於戰爭懷抱,與靈魂、與愛情漸行漸遠。法斯賓達前妻英格烈卡文以顫音低吟中古詩歌《菩提樹下》,道是愛比死更冷?
  1. Video
  2. ID                                       : 1
  3. Format                                   : AVC
  4. Format/Info                              : Advanced Video Codec
  5. Format profile                           : [email protected]
  6. Format settings                          : CABAC / 4 Ref Frames
  7. Format settings, CABAC                   : Yes
  8. Format settings, Reference frames        : 4 frames
  9. Codec ID                                 : avc1
  10. Codec ID/Info                            : Advanced Video Coding
  11. Duration                                 : 2 h 17 min
  12. Bit rate                                 : 2 500 kb/s
  13. Width                                    : 1 920 pixels
  14. Height                                   : 1 040 pixels
  15. Display aspect ratio                     : 1.85:1
  16. Frame rate mode                          : Constant
  17. Frame rate                               : 25.000 FPS
  18. Color space                              : YUV
  19. Chroma subsampling                       : 4:2:0
  20. Bit depth                                : 8 bits
  21. Scan type                                : Progressive
  22. Bits/(Pixel*Frame)                       : 0.050
  23. Stream size                              : 2.40 GiB (92%)
  24. Writing library                          : x264 core 152 r2851M ba24899
  25. Encoding settings                        : cabac=1 / ref=4 / deblock=1:-1:-1 / analyse=0x3:0x113 / me=umh / subme=9 / psy=1 / psy_rd=1.00:0.15 / mixed_ref=1 / me_range=24 / chroma_me=1 / trellis=2 / 8x8dct=1 / cqm=0 / deadzone=21,11 / fast_pskip=1 / chroma_qp_offset=-3 / threads=16 / lookahead_threads=4 / sliced_threads=0 / nr=0 / decimate=1 / interlaced=0 / bluray_compat=0 / constrained_intra=0 / bframes=3 / b_pyramid=2 / b_adapt=2 / b_bias=0 / direct=3 / weightb=1 / open_gop=0 / weightp=2 / keyint=250 / keyint_min=25 / scenecut=40 / intra_refresh=0 / rc_lookahead=50 / rc=2pass / mbtree=1 / bitrate=2500 / ratetol=1.0 / qcomp=0.60 / qpmin=0 / qpmax=69 / qpstep=4 / cplxblur=20.0 / qblur=0.5 / vbv_maxrate=31250 / vbv_bufsize=31250 / nal_hrd=none / filler=0 / ip_ratio=1.40 / aq=3:1.00
  26. Encoded date                             : UTC 2020-08-03 09:39:22
  27. Tagged date                              : UTC 2020-08-03 09:39:22
  28. Codec configuration box                  : avcC
  29. Audio
  30. ID                                       : 2
  31. Format                                   : AAC LC
  32. Format/Info                              : Advanced Audio Codec Low Complexity
  33. Codec ID                                 : mp4a-40-2
  34. Duration                                 : 2 h 17 min
  35. Bit rate mode                            : Constant
  36. Bit rate                                 : 224 kb/s
  37. Channel(s)                               : 2 channels
  38. Channel layout                           : L R
  39. Sampling rate                            : 48.0 kHz
  40. Frame rate                               : 46.875 FPS (1024 SPF)
  41. Compression mode                         : Lossy
  42. Stream size                              : 220 MiB (8%)
  43. Language                                 : Portuguese
  44. Default                                  : Yes
  45. Alternate group                          : 1
  46. Encoded date                             : UTC 2020-08-03 09:39:22
  47. Tagged date                              : UTC 2020-08-03 09:39:22
复制代码





                                       
                                       

                                       
                                       
                                       




回复

使用道具 举报

懒得打字嘛,点击右侧快捷回复 【右侧内容,后台自定义】
您需要登录后才可以回帖 登录 | 立即加入

本版积分规则

Archiver|小黑屋| 蓝光电影网 |网站地图

Copyright © 2021 Comsenz Inc. Powered by 蓝光电影网

蓝光电影网

本站内容由用户自主分享和转载自互联网,转载目的在于传递更多信息,并不代表本网赞同其观点和对其真实性负责。

如有侵权、违反国家法律政策行为,请联系我们,我们会第一时间及时清除和处理!

举报反馈邮箱:[email protected]

快速回复 返回顶部 返回列表