找回密码

蓝光电影网

查看: 8|回复: 0

[剧情] 她比烟花寂寞/中断的琴声 Hilary.and.Jackie.1998.1080p.WEBRip.x264-RARBG 2.29GB

[复制链接]
蓝光币
382
发表于 2021-8-20 00:44:56 | 显示全部楼层 |阅读模式


◎译  名 她比烟花孤单 / 中断的琴声 / 希拉莉和积琪琳 / 希拉里与杰基 / 无情荒地有琴天(台) / 狂恋大提琴
◎片  名 Hilary and Jackie
◎年  代 1998
◎产  地 英国
◎类  别 剧情 / 音乐 / 列传
◎语  言 英语
◎上映日期 1998-12-30
◎IMDb评分  7.3/10 from 9567 users
◎IMDb链接  https://www.imdb.com/title/tt0150915
◎豆瓣评分 8.3/10 from 105817 users
◎豆瓣链接 https://movie.douban.com/subject/1293708/
◎片  长 121 分钟
◎导  演 Anand Tucker
◎编  剧 弗兰克·科特雷尔·博伊斯 Frank Cottrell Boyce
◎主  演 Emily Watson
       Rachel Griffiths
       James Frain
       David Morrissey
       Charles Dance

◎标  签 她比烟花孤单 | 英国 | 列传 | 音乐 | 女性 | 英国电影 | 剧情 | 恋爱
◎简  介

  
  希拉莉(瑞切尔?格里菲斯 饰)与积琪琳(艾米丽?沃森 饰)是一对豪情深厚的姐妹。姐姐希拉莉很有吹长笛的天分,积琪琳看着姐姐拿到了很多光荣也不甘落后,经过艰辛练习后,积琪琳的大提琴也有了很大的进步。在一次角逐中,两人别离获得了第一,但希拉莉起头妒忌妹妹,纵使两人的豪情没有遭到影响,可是希拉莉的音乐之路起头触礁。
  长大后的希拉莉成家了,搬到了偏僻地域,这时也一样成婚了的积琪琳非常恋慕姐姐过着平常但幸运的生活,她起头厌倦处处表演。她逃到了姐姐的家中,却要求与姐夫发生关系,为了迁就妹妹,希拉莉只好妥协。终究一天,积琪琳发现姐夫爱的仍然是姐姐时,她分开了,回到了丈夫的身旁,正当一切停顿顺遂之际,她发现自己得了了不治之症。
◎获奖情况  
  第71届奥斯卡金像奖(1999)
  最好女配角(提名) 艾米丽·沃森
  最好女配角(提名) 瑞切尔·格里菲斯
  第55届威尼斯电影节(1998)
  主比赛单元 金狮奖 (提名) 安南德·图克尔
  第56届金球奖(1999)
  电影类 剧情片最好女配角(提名) 艾米丽·沃森
  1. Video
  2. ID                                       : 1
  3. Format                                   : AVC
  4. Format/Info                              : Advanced Video Codec
  5. Format profile                           : [email protected]
  6. Format settings                          : CABAC / 4 Ref Frames
  7. Format settings, CABAC                   : Yes
  8. Format settings, Reference frames        : 4 frames
  9. Codec ID                                 : avc1
  10. Codec ID/Info                            : Advanced Video Coding
  11. Duration                                 : 2 h 0 min
  12. Bit rate                                 : 2 500 kb/s
  13. Width                                    : 1 920 pixels
  14. Height                                   : 816 pixels
  15. Display aspect ratio                     : 2.35:1
  16. Frame rate mode                          : Constant
  17. Frame rate                               : 23.976 (23976/1000/189150) FPS
  18. Color space                              : YUV
  19. Chroma subsampling                       : 4:2:0
  20. Bit depth                                : 8 bits
  21. Scan type                                : Progressive
  22. Bits/(Pixel*Frame)                       : 0.067
  23. Stream size                              : 2.10 GiB (92%)
  24. Writing library                          : x264 core 152 r2851M ba24899
  25. Encoding settings                        : cabac=1 / ref=4 / deblock=1:-1:-1 / analyse=0x3:0x113 / me=umh / subme=9 / psy=1 / psy_rd=1.00:0.15 / mixed_ref=1 / me_range=24 / chroma_me=1 / trellis=2 / 8x8dct=1 / cqm=0 / deadzone=21,11 / fast_pskip=1 / chroma_qp_offset=-3 / threads=16 / lookahead_threads=4 / sliced_threads=0 / nr=0 / decimate=1 / interlaced=0 / bluray_compat=0 / constrained_intra=0 / bframes=3 / b_pyramid=2 / b_adapt=2 / b_bias=0 / direct=3 / weightb=1 / open_gop=0 / weightp=2 / keyint=250 / keyint_min=25 / scenecut=40 / intra_refresh=0 / rc_lookahead=50 / rc=2pass / mbtree=1 / bitrate=2500 / ratetol=1.0 / qcomp=0.60 / qpmin=0 / qpmax=69 / qpstep=4 / cplxblur=20.0 / qblur=0.5 / vbv_maxrate=31250 / vbv_bufsize=31250 / nal_hrd=none / filler=0 / ip_ratio=1.40 / aq=3:1.00
  26. Encoded date                             : UTC 2020-08-02 13:38:19
  27. Tagged date                              : UTC 2020-08-02 13:38:19
  28. Codec configuration box                  : avcC
  29. Audio
  30. ID                                       : 2
  31. Format                                   : AAC LC
  32. Format/Info                              : Advanced Audio Codec Low Complexity
  33. Codec ID                                 : mp4a-40-2
  34. Duration                                 : 2 h 0 min
  35. Bit rate mode                            : Constant
  36. Bit rate                                 : 224 kb/s
  37. Channel(s)                               : 2 channels
  38. Channel layout                           : L R
  39. Sampling rate                            : 48.0 kHz
  40. Frame rate                               : 46.875 FPS (1024 SPF)
  41. Compression mode                         : Lossy
  42. Stream size                              : 193 MiB (8%)
  43. Language                                 : English
  44. Default                                  : Yes
  45. Alternate group                          : 1
  46. Encoded date                             : UTC 2020-08-02 13:38:19
  47. Tagged date                              : UTC 2020-08-02 13:38:19
复制代码






                                       
                                       

                                       
                                       
                                       




回复

使用道具 举报

懒得打字嘛,点击右侧快捷回复 【右侧内容,后台自定义】
您需要登录后才可以回帖 登录 | 立即加入

本版积分规则

Archiver|小黑屋| 蓝光电影网 |网站地图

Copyright © 2021 Comsenz Inc. Powered by 蓝光电影网

蓝光电影网

本站内容由用户自主分享和转载自互联网,转载目的在于传递更多信息,并不代表本网赞同其观点和对其真实性负责。

如有侵权、违反国家法律政策行为,请联系我们,我们会第一时间及时清除和处理!

举报反馈邮箱:[email protected]

快速回复 返回顶部 返回列表