找回密码

蓝光电影网

查看: 15|回复: 0

[剧情] 等待野蛮人 Waiting.for.the.Barbarians.2019.1080p.AMZN.WEBRip.DDP5.1.x264-iKA 6.28GB

[复制链接]
蓝光币
426
发表于 2021-8-20 00:46:51 | 显示全部楼层 |阅读模式


◎译  名 期待野生番
◎片  名 Waiting for the Barbarians
◎年  代 2019
◎产  地 意大利 / 美国
◎类  别 剧情
◎语  言 英语
◎上映日期 2019-09-06(威尼斯电影节) / 2020-08-07(美国)
◎IMDb评分  6.2/10 from 448 users
◎IMDb链接  https://www.imdb.com/title/tt6149154
◎豆瓣评分 0/10 from 0 users
◎豆瓣链接 https://movie.douban.com/subject/27082866/
◎片  长 112分钟
◎导  演 西罗·格拉 Ciro Guerra
◎编  剧 J·M·库切 J.M. Coetzee
◎主  演 约翰尼·德普 Johnny Depp
       罗伯特·帕丁森 Robert Pattinson
       马克·里朗斯 Mark Rylance
       格列塔·斯卡奇 Greta Scacchi
       大卫·丹席克 David Dencik
       萨姆·里德 Sam Reid
       哈利·米尔林 Harry Melling
       比尔·米尔纳 Bill Milner
       大卫·摩尔斯特 David Moorst
       约瑟夫·朗 Joseph Long
       威尔·柯班 Wil Coban
       Gana Bayarsaikhan
       Gursed Dalkhsuren
       Tserendagva Purevdorj
       Clem So

◎标  签 约翰尼·德普 | JohnnyDepp | 小说改编 | 美国 | 2019 | 剧情 | 美国电影 | 库切
◎简  介

  
  按照约翰·马克斯韦尔·库切的同名小说改编,这位诺贝尔文学奖得主将自己的作品改编为剧本。故事的仆人公是一位大英帝国外洋殖民地的法官,他起头思疑自己对于帝国的虔诚。
◎获奖情况  
  第76届威尼斯电影节(2019)
  主比赛单元 金狮奖 (提名) 西罗·格拉
  1. Video
  2. ID                                       : 1
  3. Format                                   : AVC
  4. Format/Info                              : Advanced Video Codec
  5. Format profile                           : [email protected]
  6. Format settings                          : CABAC / 4 Ref Frames
  7. Format settings, CABAC                   : Yes
  8. Format settings, Reference frames        : 4 frames
  9. Codec ID                                 : V_MPEG4/ISO/AVC
  10. Duration                                 : 1 h 53 min
  11. Bit rate mode                            : Constant
  12. Bit rate                                 : 7 265 kb/s
  13. Nominal bit rate                         : 10 000 kb/s
  14. Width                                    : 1 920 pixels
  15. Height                                   : 800 pixels
  16. Display aspect ratio                     : 2.40:1
  17. Frame rate mode                          : Constant
  18. Frame rate                               : 23.976 (24000/1001/189150) FPS
  19. Color space                              : YUV
  20. Chroma subsampling                       : 4:2:0
  21. Bit depth                                : 8 bits
  22. Scan type                                : Progressive
  23. Bits/(Pixel*Frame)                       : 0.197
  24. Stream size                              : 5.77 GiB (92%)
  25. Default                                  : Yes
  26. Forced                                   : No
  27. Color range                              : Limited
  28. Color primaries                          : BT.709
  29. Transfer characteristics                 : BT.709
  30. Matrix coefficients                      : BT.709
  31. Audio
  32. ID                                       : 2
  33. Format                                   : E-AC-3
  34. Format/Info                              : Enhanced AC-3
  35. Commercial name                          : Dolby Digital Plus
  36. Codec ID                                 : A_EAC3
  37. Duration                                 : 1 h 53 min
  38. Bit rate mode                            : Constant
  39. Bit rate                                 : 640 kb/s
  40. Channel(s)                               : 6 channels
  41. Channel layout                           : L R C LFE Ls Rs
  42. Sampling rate                            : 48.0 kHz
  43. Frame rate                               : 31.250 FPS (1536 SPF)
  44. Compression mode                         : Lossy
  45. Stream size                              : 520 MiB (8%)
  46. Language                                 : English
  47. Service kind                             : Complete Main
  48. Default                                  : Yes
  49. Forced                                   : No
  50. Text
  51. ID                                       : 3
  52. Format                                   : UTF-8
  53. Codec ID                                 : S_TEXT/UTF8
  54. Codec ID/Info                            : UTF-8 Plain Text
  55. Duration                                 : 1 h 52 min
  56. Bit rate                                 : 31 b/s
  57. Count of elements                        : 1037
  58. Stream size                              : 25.6 KiB (0%)
  59. Title                                    : SDH
  60. Language                                 : English
  61. Default                                  : No
  62. Forced                                   : No
复制代码



                                       
                                       

                                       
                                       
                                       




回复

使用道具 举报

懒得打字嘛,点击右侧快捷回复 【右侧内容,后台自定义】
您需要登录后才可以回帖 登录 | 立即加入

本版积分规则

Archiver|小黑屋| 蓝光电影网 |网站地图

Copyright © 2021 Comsenz Inc. Powered by 蓝光电影网

蓝光电影网

本站内容由用户自主分享和转载自互联网,转载目的在于传递更多信息,并不代表本网赞同其观点和对其真实性负责。

如有侵权、违反国家法律政策行为,请联系我们,我们会第一时间及时清除和处理!

举报反馈邮箱:[email protected]

快速回复 返回顶部 返回列表