找回密码

蓝光电影网

查看: 9|回复: 0

[剧情] 秘密花园 The.Secret.Garden.2020.1080p.WEBRip.DD5.1.x264-CM 4.62GB

[复制链接]
蓝光币
382
发表于 2021-8-20 00:47:07 | 显示全部楼层 |阅读模式


◎译  名 奥秘花园
◎片  名 The Secret Garden
◎年  代 2020
◎产  地 英国 / 法国
◎类  别 剧情 / 奇异
◎语  言 英语
◎上映日期 2020-08-07(美国)
◎IMDb评分  6.9/10 from 47 users
◎IMDb链接  https://www.imdb.com/title/tt2702920
◎豆瓣评分 0/10 from 0 users
◎豆瓣链接 https://movie.douban.com/subject/30206883/
◎片  长 99分钟
◎导  演 马克·穆登 Marc Munden
◎编  剧 杰克·索恩 Jack Thorne / 弗朗西丝·霍奇森·伯内特 Frances Hodgson Burnett
◎主  演 迪克西·艾格瑞克斯 Dixie Egerickx
       科林·费尔斯 Colin Firth
       朱丽·沃特斯 Julie Walters
       伊登·黑赫斯特 Edan Hayhurst
       梅芙·德莫迪 Maeve Dermody
       杰玛·鲍威尔 Jemma Powell
       保罗·G·雷蒙德 Paul G. Raymond
       阿米尔·威尔森 Amir Wilson
       Isis Davis
       Sonia Goswami
       Paul Dean-Kelly
       Anne Lacey
       Albert Giannitelli
       Jackson Kai
       Chloe Stannage
       Tommy Gene Surridge

◎标  签 奇异 | 英国 | 小说改编 | 童话 | ColinFirth | 2020 | 儿童 | 电影
◎简  介

  
  小女孩玛丽怙恃双亡,她生活在姨夫阴晦奥秘的大屋子里。随后,玛丽闯进了禁闭已久的花园,与迪肯、柯林等人找到了欢畅的源泉。布满魔力的旅程揭开,欢畅、爱心,改变了孩子们的人生。
  1. Video
  2. ID                                       : 1
  3. Format                                   : AVC
  4. Format/Info                              : Advanced Video Codec
  5. Format profile                           : [email protected]
  6. Format settings                          : CABAC / 2 Ref Frames
  7. Format settings, CABAC                   : Yes
  8. Format settings, Reference frames        : 2 frames
  9. Codec ID                                 : V_MPEG4/ISO/AVC
  10. Duration                                 : 1 h 39 min
  11. Bit rate                                 : 6 245 kb/s
  12. Width                                    : 1 920 pixels
  13. Height                                   : 1 080 pixels
  14. Display aspect ratio                     : 16:9
  15. Frame rate mode                          : Constant
  16. Frame rate                               : 23.976 (24000/1001/189150) FPS
  17. Color space                              : YUV
  18. Chroma subsampling                       : 4:2:0
  19. Bit depth                                : 8 bits
  20. Scan type                                : Progressive
  21. Bits/(Pixel*Frame)                       : 0.126
  22. Stream size                              : 4.35 GiB (94%)
  23. Writing library                          : x264 core 155 r2901 7d0ff22
  24. Language                                 : English
  25. Default                                  : Yes
  26. Forced                                   : No
  27. Color range                              : Limited
  28. Color primaries                          : BT.709
  29. Transfer characteristics                 : BT.709
  30. Matrix coefficients                      : BT.709
  31. Audio
  32. ID                                       : 2
  33. Format                                   : AC-3
  34. Format/Info                              : Audio Coding 3
  35. Commercial name                          : Dolby Digital
  36. Codec ID                                 : A_AC3
  37. Duration                                 : 1 h 39 min
  38. Bit rate mode                            : Constant
  39. Bit rate                                 : 384 kb/s
  40. Channel(s)                               : 6 channels
  41. Channel layout                           : L R C LFE Ls Rs
  42. Sampling rate                            : 48.0 kHz
  43. Frame rate                               : 31.250 FPS (1536 SPF)
  44. Bit depth                                : 16 bits
  45. Compression mode                         : Lossy
  46. Stream size                              : 274 MiB (6%)
  47. Language                                 : English
  48. Service kind                             : Complete Main
  49. Default                                  : Yes
  50. Forced                                   : No
  51. Text
  52. ID                                       : 3
  53. Format                                   : UTF-8
  54. Codec ID                                 : S_TEXT/UTF8
  55. Codec ID/Info                            : UTF-8 Plain Text
  56. Duration                                 : 1 h 32 min
  57. Bit rate                                 : 37 b/s
  58. Count of elements                        : 840
  59. Stream size                              : 25.7 KiB (0%)
  60. Language                                 : English
  61. Default                                  : Yes
  62. Forced                                   : No
复制代码






                                       
                                       

                                       
                                       
                                       




回复

使用道具 举报

懒得打字嘛,点击右侧快捷回复 【右侧内容,后台自定义】
您需要登录后才可以回帖 登录 | 立即加入

本版积分规则

Archiver|小黑屋| 蓝光电影网 |网站地图

Copyright © 2021 Comsenz Inc. Powered by 蓝光电影网

蓝光电影网

本站内容由用户自主分享和转载自互联网,转载目的在于传递更多信息,并不代表本网赞同其观点和对其真实性负责。

如有侵权、违反国家法律政策行为,请联系我们,我们会第一时间及时清除和处理!

举报反馈邮箱:[email protected]

快速回复 返回顶部 返回列表