找回密码

蓝光电影网

查看: 11|回复: 0

[剧情] 核 Nuclear.2019.1080p.AMZN.WEBRip.DDP5.1.x264-IKA 4.88GB

[复制链接]
蓝光币
382
发表于 2021-8-20 00:47:22 | 显示全部楼层 |阅读模式


◎译  名 核
◎片  名 Nuclear
◎年  代 2019
◎产  地 英国
◎类  别 剧情
◎语  言 英语
◎上映日期 2019-10-11(华沙电影节)
◎IMDb评分  7.0/10 from 26 users
◎IMDb链接  https://www.imdb.com/title/tt8325880
◎豆瓣评分 0/10 from 0 users
◎豆瓣链接 https://movie.douban.com/subject/30278282/
◎片  长 92分钟
◎导  演 Catherine Linstrum
◎编  剧 Catherine Linstrum / David-John Newman
◎主  演 艾米莉亚·琼斯 Emilia Jones
       西耶娜·盖尔利 Sienna Guillory
       奥利弗·库珀史姑娘 Oliver Coopersmith
       乔治·麦凯 George MacKay
       Noriko Sakura

◎标  签 英国 | P-WarsawB入围前两部比赛
◎简  介

  
  Following an act of violence committed by her own brother, Emma escapes with her mother to wild, open country, where they find refuge in an isolated retreat in the shadow of a nuclear power station.
  1. Video
  2. ID                                       : 1
  3. Format                                   : AVC
  4. Format/Info                              : Advanced Video Codec
  5. Format profile                           : [email protected]
  6. Format settings                          : CABAC / 4 Ref Frames
  7. Format settings, CABAC                   : Yes
  8. Format settings, Reference frames        : 4 frames
  9. Codec ID                                 : V_MPEG4/ISO/AVC
  10. Duration                                 : 1 h 32 min
  11. Bit rate mode                            : Constant
  12. Bit rate                                 : 6 896 kb/s
  13. Nominal bit rate                         : 10 000 kb/s
  14. Width                                    : 1 920 pixels
  15. Height                                   : 872 pixels
  16. Display aspect ratio                     : 2.2:1
  17. Frame rate mode                          : Constant
  18. Frame rate                               : 23.976 (24000/1001/189150) FPS
  19. Color space                              : YUV
  20. Chroma subsampling                       : 4:2:0
  21. Bit depth                                : 8 bits
  22. Scan type                                : Progressive
  23. Bits/(Pixel*Frame)                       : 0.172
  24. Stream size                              : 4.46 GiB (91%)
  25. Default                                  : Yes
  26. Forced                                   : No
  27. Color range                              : Limited
  28. Color primaries                          : BT.709
  29. Transfer characteristics                 : BT.709
  30. Matrix coefficients                      : BT.709
  31. Audio
  32. ID                                       : 2
  33. Format                                   : E-AC-3
  34. Format/Info                              : Enhanced AC-3
  35. Commercial name                          : Dolby Digital Plus
  36. Codec ID                                 : A_EAC3
  37. Duration                                 : 1 h 32 min
  38. Bit rate mode                            : Constant
  39. Bit rate                                 : 640 kb/s
  40. Channel(s)                               : 6 channels
  41. Channel layout                           : L R C LFE Ls Rs
  42. Sampling rate                            : 48.0 kHz
  43. Frame rate                               : 31.250 FPS (1536 SPF)
  44. Compression mode                         : Lossy
  45. Stream size                              : 424 MiB (8%)
  46. Language                                 : English
  47. Service kind                             : Complete Main
  48. Default                                  : Yes
  49. Forced                                   : No
  50. Text
  51. ID                                       : 3
  52. Format                                   : UTF-8
  53. Codec ID                                 : S_TEXT/UTF8
  54. Codec ID/Info                            : UTF-8 Plain Text
  55. Duration                                 : 1 h 27 min
  56. Bit rate                                 : 28 b/s
  57. Count of elements                        : 765
  58. Stream size                              : 17.9 KiB (0%)
  59. Title                                    : SDH
  60. Language                                 : English
  61. Default                                  : No
  62. Forced                                   : No
复制代码






                                       
                                       

                                       
                                       
                                       




回复

使用道具 举报

懒得打字嘛,点击右侧快捷回复 【右侧内容,后台自定义】
您需要登录后才可以回帖 登录 | 立即加入

本版积分规则

Archiver|小黑屋| 蓝光电影网 |网站地图

Copyright © 2021 Comsenz Inc. Powered by 蓝光电影网

蓝光电影网

本站内容由用户自主分享和转载自互联网,转载目的在于传递更多信息,并不代表本网赞同其观点和对其真实性负责。

如有侵权、违反国家法律政策行为,请联系我们,我们会第一时间及时清除和处理!

举报反馈邮箱:[email protected]

快速回复 返回顶部 返回列表