找回密码

蓝光电影网

查看: 13|回复: 0

[剧情] 城市风云 American.Heart.1992.1080p.AMZN.WEBRip.DDP2.0.x264-pawel2006 7.98GB

[复制链接]
蓝光币
386
发表于 2021-8-20 00:48:16 | 显示全部楼层 |阅读模式


◎译  名 城市风云
◎片  名 American Heart
◎年  代 1992
◎产  地 美国
◎类  别 剧情 / 恋爱 / 犯罪
◎语  言 英语
◎上映日期 1992-09-17
◎IMDb评分  6.8/10 from 2979 users
◎IMDb链接  https://www.imdb.com/title/tt0103670
◎豆瓣评分 0/10 from 0 users
◎豆瓣链接 https://movie.douban.com/subject/1306782/
◎片  长 113 分钟
◎导  演 马丁·贝尔 Martin Bell
◎编  剧 马丁·贝尔 Martin Bell / 玛丽·艾伦·马克 Mary Ellen Mark / Peter Silverman
◎主  演 杰夫·布里吉斯 Jeff Bridges
       爱德华·福隆 Edward Furlong

◎标  签 Edward | Furlong | 长大 | 恋爱 | 美国 | 犯罪 | 剧情 | 正太
◎简  介

  
  Jack is now out of jail and he meets Nick, his adolescent son. Their relationship will be complicated, because Jack has a problem with alcohol. But his love for Nick will help him to get over the past and reach his dreams.
  杰克出狱了,他见到他青春期的儿子。他们的关系是复杂的,由于杰克有嗜酒题目。但他对尼克的爱将帮助他克服这些,并实现他的胡想。
  1. Video
  2. ID                                       : 1
  3. Format                                   : AVC
  4. Format/Info                              : Advanced Video Codec
  5. Format profile                           : [email protected]
  6. Format settings                          : CABAC / 4 Ref Frames
  7. Format settings, CABAC                   : Yes
  8. Format settings, Reference frames        : 4 frames
  9. Codec ID                                 : V_MPEG4/ISO/AVC
  10. Duration                                 : 1 h 55 min
  11. Bit rate mode                            : Constant
  12. Bit rate                                 : 10 000 kb/s
  13. Width                                    : 1 920 pixels
  14. Height                                   : 1 080 pixels
  15. Display aspect ratio                     : 16:9
  16. Frame rate mode                          : Constant
  17. Frame rate                               : 23.976 (24000/1001/189150) FPS
  18. Color space                              : YUV
  19. Chroma subsampling                       : 4:2:0
  20. Bit depth                                : 8 bits
  21. Scan type                                : Progressive
  22. Bits/(Pixel*Frame)                       : 0.201
  23. Stream size                              : 7.80 GiB (98%)
  24. Default                                  : Yes
  25. Forced                                   : No
  26. Color range                              : Limited
  27. Color primaries                          : BT.709
  28. Transfer characteristics                 : BT.709
  29. Matrix coefficients                      : BT.709
  30. Audio
  31. ID                                       : 2
  32. Format                                   : E-AC-3
  33. Format/Info                              : Enhanced AC-3
  34. Commercial name                          : Dolby Digital Plus
  35. Codec ID                                 : A_EAC3
  36. Duration                                 : 1 h 55 min
  37. Bit rate mode                            : Constant
  38. Bit rate                                 : 224 kb/s
  39. Channel(s)                               : 2 channels
  40. Channel layout                           : L R
  41. Sampling rate                            : 48.0 kHz
  42. Frame rate                               : 31.250 FPS (1536 SPF)
  43. Compression mode                         : Lossy
  44. Stream size                              : 184 MiB (2%)
  45. Language                                 : English
  46. Service kind                             : Complete Main
  47. Default                                  : Yes
  48. Forced                                   : No
  49. Text
  50. ID                                       : 3
  51. Format                                   : UTF-8
  52. Codec ID                                 : S_TEXT/UTF8
  53. Codec ID/Info                            : UTF-8 Plain Text
  54. Duration                                 : 1 h 52 min
  55. Bit rate                                 : 48 b/s
  56. Count of elements                        : 1480
  57. Stream size                              : 39.9 KiB (0%)
  58. Language                                 : English
  59. Default                                  : Yes
  60. Forced                                   : No
复制代码




                                       
                                       

                                       
                                       
                                       




回复

使用道具 举报

懒得打字嘛,点击右侧快捷回复 【右侧内容,后台自定义】
您需要登录后才可以回帖 登录 | 立即加入

本版积分规则

Archiver|小黑屋| 蓝光电影网 |网站地图

Copyright © 2021 Comsenz Inc. Powered by 蓝光电影网

蓝光电影网

本站内容由用户自主分享和转载自互联网,转载目的在于传递更多信息,并不代表本网赞同其观点和对其真实性负责。

如有侵权、违反国家法律政策行为,请联系我们,我们会第一时间及时清除和处理!

举报反馈邮箱:[email protected]

快速回复 返回顶部 返回列表