找回密码

蓝光电影网

查看: 16|回复: 0

[剧情] 史泰登岛国王 The.King.of.Staten.Island.2020.1080p.WEBRip.X264-DEFLATE 16.30GB

[复制链接]
蓝光币
382
发表于 2021-8-20 00:49:11 | 显示全部楼层 |阅读模式


◎译  名 史泰登岛国王 / Staten Island / 史丹顿岛之王
◎片  名 The King of Staten Island
◎年  代 2020
◎产  地 美国
◎类  别 剧情 / 笑剧
◎语  言 英语
◎上映日期 2020-06-12(美国)
◎IMDb评分  7.2/10 from 16927 users
◎IMDb链接  https://www.imdb.com/title/tt9686708
◎豆瓣评分 7.4/10 from 280 users
◎豆瓣链接 https://movie.douban.com/subject/30451652/
◎导  演 贾德·阿帕图 Judd Apatow
◎编  剧 贾德·阿帕图 Judd Apatow / 皮特·戴维森 Pete Davidson / Dave Sirus
◎主  演 皮特·戴维森 Pete Davidson
       玛丽莎·托梅 Marisa Tomei
       帕梅拉·阿德龙 Pamela Adlon
       机关枪凯利 Machine Gun Kelly
       史蒂夫·布西密 Steve Buscemi
       蓓尔·波利 Bel Powley
       茉德·阿帕图 Maude Apatow
       比尔·伯尔 Bill Burr
       莫伊塞斯·阿里亚斯 Moises Arias
       凯文·考利甘 Kevin Corrigan
       吉米·塔特罗 Jimmy Tatro
       多米尼克·隆巴多兹 Domenick Lombardozzi
       宝琳·查拉梅 Pauline Chalamet
       Hank Strong
       Adriana DeMeo
       Nana Mensah
       卢·威尔逊 Lou Wilson
       Lynne Koplitz
       吉米·帕伦博 Jimmy Palumbo
       加里·古尔曼 Gary Gulman
       安东尼·李·梅迪纳 Anthony Lee Medina
       亚历山大·詹姆森 Alexander Jameson
       德里克·盖恩斯 Derek Gaines
       Paul Virzi
       瑞娜·郑 Raina Cheng
       拉斐尔·普里埃 Rafael Poueriet
       列尼斯·德洛桑托斯 Leonys Delossantos

◎标  签 笑剧 | 美国 | 2020 | 黑色诙谐 | 剧情 | PeteDavidson | 美国电影 | RobertElswit
◎简  介

  
  剧情灵感来自戴维森的实在生活,包括他那在911事务中归天的消防员父亲。配角为二十多岁的男人Scott,他跟妈妈住一路,胡想是当纹身师,但天天除了吸麻和朋友厮混、悄悄勾结青梅竹马之外无所作为。而妈妈找的新男友却激发了一系列事务,迫使起头Scott重视自己的人生。
  1. Video
  2. ID                                       : 2
  3. Format                                   : AVC
  4. Format/Info                              : Advanced Video Codec
  5. Format profile                           : [email protected]
  6. Format settings                          : CABAC / 5 Ref Frames
  7. Format settings, CABAC                   : Yes
  8. Format settings, Reference frames        : 5 frames
  9. Codec ID                                 : V_MPEG4/ISO/AVC
  10. Duration                                 : 2 h 17 min
  11. Bit rate                                 : 16.0 Mb/s
  12. Width                                    : 1 920 pixels
  13. Height                                   : 804 pixels
  14. Display aspect ratio                     : 2.40:1
  15. Frame rate mode                          : Constant
  16. Frame rate                               : 23.976 (24000/1001/189150) FPS
  17. Color space                              : YUV
  18. Chroma subsampling                       : 4:2:0
  19. Bit depth                                : 8 bits
  20. Scan type                                : Progressive
  21. Bits/(Pixel*Frame)                       : 0.433
  22. Stream size                              : 15.4 GiB (94%)
  23. Writing library                          : x264 core 161 r3018+107 (master: db0d417 / deflate: acad64f) [X86_64]
  24. Encoding settings                        : cabac=1 / ref=5 / deblock=1:-3:-3 / analyse=0x3:0x133 / me=umh / subme=11 / psy=1 / fade_compensate=0.00 / psy_rd=1.05:0.15 / mixed_ref=1 / me_range=48 / chroma_me=1 / trellis=2 / 8x8dct=1 / cqm=0 / deadzone=6,6 / fast_pskip=0 / chroma_qp_offset=-3 / threads=25 / lookahead_threads=6 / sliced_threads=0 / nr=0 / decimate=0 / interlaced=0 / bluray_compat=0 / constrained_intra=0 / fgo=0 / bframes=10 / b_pyramid=2 / b_adapt=2 / b_bias=0 / direct=3 / weightb=1 / open_gop=0 / weightp=2 / keyint=250 / keyint_min=23 / scenecut=40 / intra_refresh=0 / rc_lookahead=60 / rc=crf / mbtree=0 / crf=19.4000 / qcomp=0.70 / qpmin=0:0:0 / qpmax=69:69:69 / qpstep=4 / vbv_maxrate=62500 / vbv_bufsize=78125 / crf_max=0.0 / nal_hrd=none / filler=0 / ip_ratio=1.25 / pb_ratio=1.20 / aq=3:0.75 / aq-sensitivity=10.00 / aq-factor=1.00:1.00:1.00 / aq2=0 / aq3=0
  25. Language                                 : English
  26. Default                                  : Yes
  27. Forced                                   : No

  28. Audio
  29. ID                                       : 6
  30. Format                                   : E-AC-3 JOC
  31. Format/Info                              : Enhanced AC-3 with Joint Object Coding
  32. Commercial name                          : Dolby Digital Plus with Dolby Atmos
  33. Codec ID                                 : A_EAC3
  34. Duration                                 : 2 h 17 min
  35. Bit rate mode                            : Constant
  36. Bit rate                                 : 640 kb/s
  37. Channel(s)                               : 6 channels
  38. Channel layout                           : L R C LFE Ls Rs
  39. Sampling rate                            : 48.0 kHz
  40. Frame rate                               : 31.250 FPS (1536 SPF)
  41. Compression mode                         : Lossy
  42. Stream size                              : 629 MiB (4%)
  43. Language                                 : English
  44. Service kind                             : Complete Main
  45. Default                                  : Yes
  46. Forced                                   : No
  47. Complexity index                         : 16
  48. Number of dynamic objects                : 15
  49. Bed channel count                        : 1 channel
  50. Bed channel configuration                : LFE

  51. Text #1
  52. ID                                       : 7
  53. Format                                   : UTF-8
  54. Codec ID                                 : S_TEXT/UTF8
  55. Codec ID/Info                            : UTF-8 Plain Text
  56. Title                                    : English (Forced)
  57. Language                                 : English
  58. Default                                  : Yes
  59. Forced                                   : Yes

  60. Text #2
  61. ID                                       : 8
  62. Format                                   : UTF-8
  63. Codec ID                                 : S_TEXT/UTF8
  64. Codec ID/Info                            : UTF-8 Plain Text
  65. Title                                    : English
  66. Language                                 : English
  67. Default                                  : No
  68. Forced                                   : No

  69. Text #3
  70. ID                                       : 9
  71. Format                                   : UTF-8
  72. Codec ID                                 : S_TEXT/UTF8
  73. Codec ID/Info                            : UTF-8 Plain Text
  74. Title                                    : English (SDH)
  75. Language                                 : English
  76. Default                                  : No
  77. Forced                                   : No

  78. Menu
  79. 00:00:00.000                             : en:Chapter 1
  80. 00:07:58.000                             : en:Chapter 2
  81. 00:15:19.000                             : en:Chapter 3
  82. 00:21:29.000                             : en:Chapter 4
  83. 00:30:27.000                             : en:Chapter 5
  84. 00:35:46.000                             : en:Chapter 6
  85. 00:43:28.000                             : en:Chapter 7
  86. 00:51:03.000                             : en:Chapter 8
  87. 00:58:12.000                             : en:Chapter 9
  88. 01:06:41.000                             : en:Chapter 10
  89. 01:11:34.000                             : en:Chapter 11
  90. 01:16:30.000                             : en:Chapter 12
  91. 01:21:31.000                             : en:Chapter 13
  92. 01:29:05.000                             : en:Chapter 14
  93. 01:34:15.000                             : en:Chapter 15
  94. 01:41:26.000                             : en:Chapter 16
  95. 01:46:09.000                             : en:Chapter 17
  96. 01:56:22.000                             : en:Chapter 18
  97. 02:04:02.000                             : en:Chapter 19
  98. 02:11:39.000                             : en:Chapter 20
复制代码




                                       
                                       

                                       
                                       
                                       




回复

使用道具 举报

懒得打字嘛,点击右侧快捷回复 【右侧内容,后台自定义】
您需要登录后才可以回帖 登录 | 立即加入

本版积分规则

Archiver|小黑屋| 蓝光电影网 |网站地图

Copyright © 2021 Comsenz Inc. Powered by 蓝光电影网

蓝光电影网

本站内容由用户自主分享和转载自互联网,转载目的在于传递更多信息,并不代表本网赞同其观点和对其真实性负责。

如有侵权、违反国家法律政策行为,请联系我们,我们会第一时间及时清除和处理!

举报反馈邮箱:[email protected]

快速回复 返回顶部 返回列表