找回密码

蓝光电影网

查看: 20|回复: 0

[剧情] 西西里岛 Sicily.1999.ITALIAN.1080p.AMZN.WEBRip.DDP2.0.x264-TEPES 4.61GB

[复制链接]
蓝光币
386
发表于 2021-8-20 00:49:49 | 显示全部楼层 |阅读模式


◎译  名 西西里岛/Sicily!/西西丽亚/西西里!
◎片  名 Sicilia!
◎年  代 1999
◎产  地 意大利,法国,德国
◎类  别 剧情
◎语  言 意大利语
◎上映日期 1999-09-15
◎IMDb评分  7/10 from 703 users
◎IMDb链接  https://www.imdb.com/title/tt0200135/
◎豆瓣评分 7.8/10 from 212 users
◎豆瓣链接 https://movie.douban.com/subject/1303446/
◎片  长 66分钟
◎导  演 达尼埃尔·于伊耶 Danièle Huillet / 让-马里·斯特劳布 Jean-Marie Straub
◎编  剧 达尼埃尔·于伊耶 Danièle Huillet / 让-马里·斯特劳布 Jean-Marie Straub / Elio Vittorini
◎标  签 意大利 | 法国 | 意大利电影 | 1999 | 让-马里·斯特劳布 | 1990s | Jean-Marie_Straub | Danièle_Huillet
◎简  介


  一如他曾把卡夫卡小說幾乎「笼统」化,也把巴哈密斯日記拍得如此地貼近音樂而非笔墨,Straub的這種風格,除了執拗地延續像MoulletGarrel這些新浪潮好友的「極簡」手法之外,也算是為自己的「藝術」捍衛的極高體現。
  
  看來,我還得回頭去看一下Pedro Costa為「我們時代的電影」系列,為這兩夫妻拍的那一集吧,或許,我才真正能向他們更靠近一些(究竟是Costa像他們而找他拍,還是Costa自己確實遭到兩夫妻的影響,而获得真髓,所以找來對他們最有研讨的創作者來拍呢?這我們就不得而知了)?
◎获奖情况
  第52届戛纳电影节 ?(1999)
  一种关注单元一种关注大奖(提名) 达尼埃尔·于伊耶?/?让-马里·斯特劳布
  1. Video
  2. ID                                       : 1
  3. Format                                   : AVC
  4. Format/Info                              : Advanced Video Codec
  5. Format profile                           : [email protected]
  6. Format settings                          : CABAC / 4 Ref Frames
  7. Format settings, CABAC                   : Yes
  8. Format settings, Reference frames        : 4 frames
  9. Codec ID                                 : V_MPEG4/ISO/AVC
  10. Duration                                 : 1 h 6 min
  11. Bit rate mode                            : Constant
  12. Bit rate                                 : 10 000 kb/s
  13. Width                                    : 1 440 pixels
  14. Height                                   : 1 080 pixels
  15. Display aspect ratio                     : 4:3
  16. Frame rate mode                          : Constant
  17. Frame rate                               : 24.000 FPS
  18. Color space                              : YUV
  19. Chroma subsampling                       : 4:2:0
  20. Bit depth                                : 8 bits
  21. Scan type                                : Progressive
  22. Bits/(Pixel*Frame)                       : 0.268
  23. Stream size                              : 4.50 GiB (98%)
  24. Default                                  : Yes
  25. Forced                                   : No
  26. Color range                              : Limited
  27. Color primaries                          : BT.709
  28. Transfer characteristics                 : BT.709
  29. Matrix coefficients                      : BT.709
  30. Audio
  31. ID                                       : 2
  32. Format                                   : E-AC-3
  33. Format/Info                              : Enhanced AC-3
  34. Commercial name                          : Dolby Digital Plus
  35. Codec ID                                 : A_EAC3
  36. Duration                                 : 1 h 6 min
  37. Bit rate mode                            : Constant
  38. Bit rate                                 : 224 kb/s
  39. Channel(s)                               : 2 channels
  40. Channel layout                           : L R
  41. Sampling rate                            : 48.0 kHz
  42. Frame rate                               : 31.250 FPS (1536 SPF)
  43. Compression mode                         : Lossy
  44. Stream size                              : 107 MiB (2%)
  45. Language                                 : Italian
  46. Service kind                             : Complete Main
  47. Default                                  : Yes
  48. Forced                                   : No
  49. Text #1
  50. ID                                       : 3
  51. Format                                   : UTF-8
  52. Codec ID                                 : S_TEXT/UTF8
  53. Codec ID/Info                            : UTF-8 Plain Text
  54. Duration                                 : 1 h 4 min
  55. Bit rate                                 : 60 b/s
  56. Count of elements                        : 861
  57. Stream size                              : 28.7 KiB (0%)
  58. Language                                 : English
  59. Default                                  : No
  60. Forced                                   : No
  61. Text #2
  62. ID                                       : 4
  63. Format                                   : UTF-8
  64. Codec ID                                 : S_TEXT/UTF8
  65. Codec ID/Info                            : UTF-8 Plain Text
  66. Duration                                 : 1 h 4 min
  67. Bit rate                                 : 66 b/s
  68. Count of elements                        : 861
  69. Stream size                              : 31.7 KiB (0%)
  70. Language                                 : German
  71. Default                                  : No
  72. Forced                                   : No
  73. Text #3
  74. ID                                       : 5
  75. Format                                   : UTF-8
  76. Codec ID                                 : S_TEXT/UTF8
  77. Codec ID/Info                            : UTF-8 Plain Text
  78. Duration                                 : 1 h 4 min
  79. Bit rate                                 : 61 b/s
  80. Count of elements                        : 853
  81. Stream size                              : 28.9 KiB (0%)
  82. Title                                    : Espa?ol
  83. Language                                 : Spanish
  84. Default                                  : No
  85. Forced                                   : No
  86. Text #4
  87. ID                                       : 6
  88. Format                                   : UTF-8
  89. Codec ID                                 : S_TEXT/UTF8
  90. Codec ID/Info                            : UTF-8 Plain Text
  91. Duration                                 : 1 h 4 min
  92. Bit rate                                 : 67 b/s
  93. Count of elements                        : 855
  94. Stream size                              : 31.9 KiB (0%)
  95. Language                                 : French
  96. Default                                  : No
  97. Forced                                   : No
  98. Text #5
  99. ID                                       : 7
  100. Format                                   : UTF-8
  101. Codec ID                                 : S_TEXT/UTF8
  102. Codec ID/Info                            : UTF-8 Plain Text
  103. Duration                                 : 1 h 4 min
  104. Bit rate                                 : 59 b/s
  105. Count of elements                        : 773
  106. Stream size                              : 27.7 KiB (0%)
  107. Title                                    : Português
  108. Language                                 : Portuguese
  109. Default                                  : No
  110. Forced                                   : No
  111. Text #6
  112. ID                                       : 8
  113. Format                                   : UTF-8
  114. Codec ID                                 : S_TEXT/UTF8
  115. Codec ID/Info                            : UTF-8 Plain Text
  116. Duration                                 : 1 h 4 min
  117. Bit rate                                 : 68 b/s
  118. Count of elements                        : 871
  119. Stream size                              : 32.0 KiB (0%)
  120. Language                                 : Turkish
  121. Default                                  : No
  122. Forced                                   : No
复制代码






                                       
                                       

                                       
                                       
                                       




回复

使用道具 举报

懒得打字嘛,点击右侧快捷回复 【右侧内容,后台自定义】
您需要登录后才可以回帖 登录 | 立即加入

本版积分规则

Archiver|小黑屋| 蓝光电影网 |网站地图

Copyright © 2021 Comsenz Inc. Powered by 蓝光电影网

蓝光电影网

本站内容由用户自主分享和转载自互联网,转载目的在于传递更多信息,并不代表本网赞同其观点和对其真实性负责。

如有侵权、违反国家法律政策行为,请联系我们,我们会第一时间及时清除和处理!

举报反馈邮箱:[email protected]

快速回复 返回顶部 返回列表