找回密码

蓝光电影网

查看: 12|回复: 0

[剧情] 畸形青春 Amateur.Teens.2015.GERMAN.1080p.AMZN.WEBRip.DD2.0.x264-NTG 6.25GB

[复制链接]
蓝光币
382
发表于 2021-8-20 00:51:21 | 显示全部楼层 |阅读模式


◎译  名 畸形青春/Born Digital
◎片  名 Amateur Teens
◎年  代 2015
◎产  地 瑞士
◎类  别 剧情
◎语  言 德语
◎上映日期 2015-09-30(苏黎世电影节)
◎IMDb评分  6.1/10 from 332 users
◎IMDb链接  https://www.imdb.com/title/tt4038108/
◎豆瓣评分 /10 from 0 users
◎豆瓣链接 https://movie.douban.com/subject/26774605/
◎片  长 92分钟
◎主  演 比特·马蒂 Beat Marti
       法比齐奥·波萨尼 Fabrizio Borsani
       佐伊·帕斯提尔·赫斯泽恩 Zo? Pastelle Holthuizen
◎简  介


  A group of normal 14-year-old teenagers at a secondary school in Zürich with the normal yearnings for love and acceptance. But the power of social media, with its high-gloss selfies and perpetual pressure towards cooler and sexier, increasingly forces the kids to deny their true feelings. So a tragedy runs its course, one in which it is almost impossible to differentiate between perpetrator and victim, guilt and innocence.
  1. Video
  2. ID                                       : 1
  3. Format                                   : AVC
  4. Format/Info                              : Advanced Video Codec
  5. Format profile                           : [email protected]
  6. Format settings                          : CABAC / 4 Ref Frames
  7. Format settings, CABAC                   : Yes
  8. Format settings, Reference frames        : 4 frames
  9. Codec ID                                 : V_MPEG4/ISO/AVC
  10. Duration                                 : 1 h 31 min
  11. Bit rate mode                            : Variable
  12. Bit rate                                 : 9 520 kb/s
  13. Maximum bit rate                         : 15.0 Mb/s
  14. Width                                    : 1 920 pixels
  15. Height                                   : 800 pixels
  16. Display aspect ratio                     : 2.40:1
  17. Frame rate mode                          : Constant
  18. Frame rate                               : 25.000 FPS
  19. Color space                              : YUV
  20. Chroma subsampling                       : 4:2:0
  21. Bit depth                                : 8 bits
  22. Scan type                                : Progressive
  23. Bits/(Pixel*Frame)                       : 0.248
  24. Stream size                              : 6.11 GiB (98%)
  25. Default                                  : Yes
  26. Forced                                   : No
  27. Color range                              : Limited
  28. Color primaries                          : BT.709
  29. Transfer characteristics                 : BT.709
  30. Matrix coefficients                      : BT.709
  31. Audio
  32. ID                                       : 2
  33. Format                                   : E-AC-3
  34. Format/Info                              : Enhanced AC-3
  35. Commercial name                          : Dolby Digital Plus
  36. Codec ID                                 : A_EAC3
  37. Duration                                 : 1 h 31 min
  38. Bit rate mode                            : Constant
  39. Bit rate                                 : 224 kb/s
  40. Channel(s)                               : 2 channels
  41. Channel layout                           : L R
  42. Sampling rate                            : 48.0 kHz
  43. Frame rate                               : 31.250 FPS (1536 SPF)
  44. Compression mode                         : Lossy
  45. Stream size                              : 147 MiB (2%)
  46. Language                                 : German
  47. Service kind                             : Complete Main
  48. Default                                  : Yes
  49. Forced                                   : No
  50. Text
  51. ID                                       : 3
  52. Format                                   : UTF-8
  53. Codec ID                                 : S_TEXT/UTF8
  54. Codec ID/Info                            : UTF-8 Plain Text
  55. Duration                                 : 1 h 27 min
  56. Bit rate                                 : 46 b/s
  57. Count of elements                        : 958
  58. Stream size                              : 29.8 KiB (0%)
  59. Language                                 : English
  60. Default                                  : No
  61. Forced                                   : No
复制代码






                                       
                                       

                                       
                                       
                                       




回复

使用道具 举报

懒得打字嘛,点击右侧快捷回复 【右侧内容,后台自定义】
您需要登录后才可以回帖 登录 | 立即加入

本版积分规则

Archiver|小黑屋| 蓝光电影网 |网站地图

Copyright © 2021 Comsenz Inc. Powered by 蓝光电影网

蓝光电影网

本站内容由用户自主分享和转载自互联网,转载目的在于传递更多信息,并不代表本网赞同其观点和对其真实性负责。

如有侵权、违反国家法律政策行为,请联系我们,我们会第一时间及时清除和处理!

举报反馈邮箱:[email protected]

快速回复 返回顶部 返回列表