找回密码

蓝光电影网

查看: 16|回复: 0

[剧情] 坏种 The.Bad.Seed.2018.1080p.AMZN.WEBRip.DDP5.1.x264-NOGRP 4.38GB

[复制链接]
蓝光币
382
发表于 2021-8-20 00:52:03 | 显示全部楼层 |阅读模式


◎译  名 坏种
◎片  名 The Bad Seed
◎年  代 2018
◎产  地 美国
◎类  别 剧情 / 悬疑 / 可骇
◎语  言 英语
◎上映日期 2018-09-09(美国)
◎IMDb评分  6.0/10 from 1726 users
◎IMDb链接  https://www.imdb.com/title/tt4823992
◎豆瓣评分 6.9/10 from 19765 users
◎豆瓣链接 https://movie.douban.com/subject/30317630/
◎片  长 84分钟
◎导  演 罗伯·劳 Rob Lowe
◎编  剧 William March / 巴尔巴拉·马歇尔 Barbara Marshall
◎主  演 麦肯娜·格瑞丝 Mckenna Grace
       卡拉·布欧诺 Cara Buono
       罗伯·劳 Rob Lowe
       帕特里夏·麦科马克 Patty McCormack
       莎拉·杜格代尔 Sarah Dugdale
       凯特·艾萨克 Kate Isaac
       肖娜·约翰尼森 Shauna Johannesen
       卢克·勒斯勒尔 Luke Roessler
       约翰·埃梅特·特雷西 John Emmet Tracy
       艾玛·梅里纳 Ema Mlinar
       玛茜·T·豪斯 Marci T. House
       洛恩·卡迪纳尔 Lorne Cardinal

◎标  签 反社会品德 | 萝莉 | 惊悚 | 犯罪 | 悬疑 | 可骇 | 儿童 | 天赋少女
◎简  介

  
  罗伯·劳自导自演的惊悚可骇片。麦肯娜·格瑞丝(《天赋少女》)主演。一个单身父亲(罗伯·劳 饰)帮助他的女儿艾玛(麦肯娜·格瑞丝 饰)处置她在黉舍发生的变乱。但是,他起头思疑她能否介入了这起事务。进一步的工作发生了,他不但要庇护她的奥秘,还要避免她再次遭到危险......
  1. Video
  2. ID                                       : 1
  3. Format                                   : AVC
  4. Format/Info                              : Advanced Video Codec
  5. Format profile                           : [email protected]
  6. Format settings                          : CABAC / 4 Ref Frames
  7. Format settings, CABAC                   : Yes
  8. Format settings, Reference frames        : 4 frames
  9. Codec ID                                 : V_MPEG4/ISO/AVC
  10. Duration                                 : 1 h 27 min
  11. Bit rate                                 : 6 540 kb/s
  12. Width                                    : 1 920 pixels
  13. Height                                   : 1 080 pixels
  14. Display aspect ratio                     : 16:9
  15. Frame rate mode                          : Constant
  16. Frame rate                               : 23.976 (24000/1001/189150) FPS
  17. Color space                              : YUV
  18. Chroma subsampling                       : 4:2:0
  19. Bit depth                                : 8 bits
  20. Scan type                                : Progressive
  21. Bits/(Pixel*Frame)                       : 0.132
  22. Stream size                              : 3.99 GiB (91%)
  23. Language                                 : English
  24. Default                                  : Yes
  25. Forced                                   : No
  26. Audio
  27. ID                                       : 2
  28. Format                                   : E-AC-3
  29. Format/Info                              : Enhanced AC-3
  30. Commercial name                          : Dolby Digital Plus
  31. Codec ID                                 : A_EAC3
  32. Duration                                 : 1 h 27 min
  33. Bit rate mode                            : Constant
  34. Bit rate                                 : 640 kb/s
  35. Channel(s)                               : 6 channels
  36. Channel layout                           : L R C LFE Ls Rs
  37. Sampling rate                            : 48.0 kHz
  38. Frame rate                               : 31.250 FPS (1536 SPF)
  39. Compression mode                         : Lossy
  40. Stream size                              : 400 MiB (9%)
  41. Language                                 : English
  42. Service kind                             : Complete Main
  43. Default                                  : Yes
  44. Forced                                   : No
复制代码






                                       
                                       

                                       
                                       
                                       




回复

使用道具 举报

懒得打字嘛,点击右侧快捷回复 【右侧内容,后台自定义】
您需要登录后才可以回帖 登录 | 立即加入

本版积分规则

Archiver|小黑屋| 蓝光电影网 |网站地图

Copyright © 2021 Comsenz Inc. Powered by 蓝光电影网

蓝光电影网

本站内容由用户自主分享和转载自互联网,转载目的在于传递更多信息,并不代表本网赞同其观点和对其真实性负责。

如有侵权、违反国家法律政策行为,请联系我们,我们会第一时间及时清除和处理!

举报反馈邮箱:[email protected]

快速回复 返回顶部 返回列表