找回密码

蓝光电影网

查看: 9|回复: 0

[2160p] 玩具总动员/反斗奇兵 Toy.Story.1995.2160p.BluRay.x265.10bit.SDR.DTS-HD.MA.TrueHD.7.1.Atmos-SWTYBLZ 18.83GB

[复制链接]
蓝光币
382
发表于 2019-6-1 03:09:23 | 显示全部楼层 |阅读模式


◎译  名 玩具总带动 / 反斗奇兵(港) / 玩具的故事
◎片  名 Toy Story
◎年  代 1995
◎产  地 美国
◎类  别 笑剧 / 动画 / 家庭
◎语  言 英语
◎上映日期 1995-11-22(美国)
◎IMDb评分  8.3/10 from 790607 users
◎IMDb链接  http://www.imdb.com/title/tt0114709
◎豆瓣评分 8.3/10 from 199860 users
◎豆瓣链接 https://movie.douban.com/subject/1291575/
◎片  长 81分钟
◎导  演 约翰·拉塞特 John Lasseter
◎编  剧 乔斯·韦登 Joss Whedon / 安德鲁·斯坦顿 Andrew Stanton / Joel Cohen / Alec Sokolow
◎主  演 汤姆·汉克斯 Tom Hanks
      蒂姆·艾伦 Tim Allen
      唐·里克斯 Don Rickles
      吉姆·法尼 Jim Varney

◎标  签 动画 | 美国 | 迪斯尼 | pixar | 玩具总带动 | 动画片 | 美国电影 | DISNEY
◎简  介  
  小仆人家境敷裕,具有一屋的玩具。其中他最爱的是牛仔玩偶胡迪,胡迪是以成为众玩具的“老迈”。当小仆人出门在外时,一屋的玩具自成天下,过着自己的生活。一天,小仆人带回了一个新的玩意:太空战警巴斯光年。巴斯光年长相新奇,功用先辈,令小仆人爱不释手,威胁到了胡迪的职位。胡迪想方设法要赶走巴斯,一不谨慎二人一路掉出了房间窗口外,邻人的恶狗在狂吠,邻人的小孩是一个玩具凌虐狂,胡迪巴斯能不能化敌为友,消灾解难?
◎获奖情况  
  第68届奥斯卡金像奖(1996)
  最好原创剧本(提名) 乔斯·韦登 / 约翰·拉塞特 / 彼特·道格特 / 乔·兰福特 / 安德鲁·斯坦顿 / 乔尔·科恩 / 亚历克·索科洛
  音乐/笑剧片最好原创配乐(提名) 兰迪·纽曼
  最好原创歌曲(提名) 兰迪·纽曼
  出格成就奖 约翰·拉塞特
  第24届动画安妮奖(1996)
  最好动画长片
  最好导演 约翰·拉塞特
  最好编剧 乔斯·韦登 / 安德鲁·斯坦顿 / 亚历克·索科洛 / 乔尔·科恩
  最好配音(提名) 汤姆·汉克斯
  最好配乐 兰迪·纽曼
  最好建造 邦妮·阿诺德 / Ralph Guggenheim
  最好艺术指导 拉夫·埃格尔斯顿
  最好小我成就 彼特·道格特
  最好动画技术功效

  1. Video
  2. ID                                       : 1
  3. Format                                   : HEVC
  4. Format/Info                              : High Efficiency Video Coding
  5. Format profile                           : Main [email protected]@High
  6. Codec ID                                 : V_MPEGH/ISO/HEVC
  7. Duration                                 : 1 h 21 min
  8. Bit rate                                 : 20.3 Mb/s
  9. Width                                    : 3 840 pixels
  10. Height                                   : 2 160 pixels
  11. Display aspect ratio                     : 16:9
  12. Frame rate mode                          : Constant
  13. Frame rate                               : 23.976 (24000/1001) FPS
  14. Color space                              : YUV
  15. Chroma subsampling                       : 4:2:0
  16. Bit depth                                : 10 bits
  17. Bits/(Pixel*Frame)                       : 0.102
  18. Stream size                              : 11.5 GiB (61%)
  19. Title                                    : Toy.Story.1995.2160p.BluRay.x265.10bit.SDR.DTS-HD.MA.TrueHD.7.1.Atmos-SWTYBLZ
  20. Writing library                          : x265 3.0ed72af837053:[Windows][GCC 8.2.0][64 bit] 10bit
  21. Encoding settings                        : cpuid=1111039 / frame-threads=16 / numa-pools=44,44 / wpp / no-pmode / no-pme / no-psnr / no-ssim / log-level=2 / input-csp=1 / input-res=3840x2160 / interlace=0 / total-frames=116668 / level-idc=51 / high-tier=1 / uhd-bd=0 / ref=3 / no-allow-non-conformance / repeat-headers / annexb / aud / hrd / info / hash=0 / no-temporal-layers / no-open-gop / min-keyint=1 / keyint=24 / gop-lookahead=0 / bframes=6 / b-adapt=2 / b-pyramid / bframe-bias=0 / rc-lookahead=25 / lookahead-slices=4 / scenecut=40 / radl=0 / no-splice / no-intra-refresh / ctu=64 / min-cu-size=8 / no-rect / no-amp / max-tu-size=32 / tu-inter-depth=1 / tu-intra-depth=1 / limit-tu=0 / rdoq-level=0 / dynamic-rd=0.00 / no-ssim-rd / signhide / no-tskip / nr-intra=0 / nr-inter=0 / no-constrained-intra / strong-intra-smoothing / max-merge=2 / limit-refs=3 / no-limit-modes / me=1 / subme=2 / merange=57 / temporal-mvp / weightp / no-weightb / no-analyze-src-pics / deblock=1:1 / no-sao / no-sao-non-deblock / rd=3 / no-early-skip / rskip / no-fast-intra / no-tskip-fast / no-cu-lossless / no-b-intra / no-splitrd-skip / rdpenalty=0 / psy-rd=0.40 / psy-rdoq=0.00 / no-rd-refine / no-lossless / cbqpoffs=0 / crqpoffs=0 / rc=crf / crf=16.0 / qcomp=0.60 / qpstep=4 / stats-write=0 / stats-read=0 / vbv-maxrate=160000 / vbv-bufsize=160000 / vbv-init=0.9 / crf-max=0.0 / crf-min=0.0 / ipratio=1.40 / pbratio=1.30 / aq-mode=1 / aq-strength=0.40 / cutree / zone-count=0 / no-strict-cbr / qg-size=32 / no-rc-grain / qpmax=69 / qpmin=0 / no-const-vbv / sar=1 / overscan=0 / videoformat=5 / range=0 / colorprim=2 / transfer=2 / colormatrix=2 / chromaloc=0 / display-window=0 / max-cll=0,0 / min-luma=0 / max-luma=1023 / log2-max-poc-lsb=8 / vui-timing-info / vui-hrd-info / slices=1 / opt-qp-pps / opt-ref-list-length-pps / no-multi-pass-opt-rps / scenecut-bias=0.05 / no-opt-cu-delta-qp / no-aq-motion / no-hdr / no-hdr-opt / no-dhdr10-opt / no-idr-recovery-sei / analysis-reuse-level=5 / scale-factor=0 / refine-intra=0 / refine-inter=0 / refine-mv=0 / refine-ctu-distortion=0 / no-limit-sao / ctu-info=0 / no-lowpass-dct / refine-analysis-type=0 / copy-pic=1 / max-ausize-factor=1.0 / no-dynamic-refine / no-single-sei / no-hevc-aq / qp-adaptation-range=1.00
  22. Default                                  : Yes
  23. Forced                                   : No
  24. Audio #1
  25. ID                                       : 2
  26. Format                                   : MLP FBA 16-ch
  27. Format/Info                              : Meridian Lossless Packing FBA with 16-channel presentation
  28. Commercial name                          : Dolby TrueHD with Dolby Atmos
  29. Codec ID                                 : A_TRUEHD
  30. Duration                                 : 1 h 21 min
  31. Bit rate mode                            : Variable
  32. Bit rate                                 : 7 637 kb/s
  33. Maximum bit rate                         : 9 612 kb/s
  34. Channel(s)                               : 8 channels
  35. Channel layout                           : L R C LFE Ls Rs Lb Rb
  36. Sampling rate                            : 48.0 kHz
  37. Frame rate                               : 1 200.000 FPS (40 SPF)
  38. Compression mode                         : Lossless
  39. Stream size                              : 4.33 GiB (23%)
  40. Title                                    : Toy.Story.1995.2160p.BluRay.x265.10bit.SDR.DTS-HD.MA.TrueHD.7.1.Atmos-SWTYBLZ
  41. Language                                 : English
  42. Default                                  : Yes
  43. Forced                                   : No
  44. Number of dynamic objects                : 13
  45. Bed channel count                        : 1 channel
  46. Bed channel configuration                : LFE
  47. Audio #2
  48. ID                                       : 3
  49. Format                                   : DTS XLL
  50. Format/Info                              : Digital Theater Systems
  51. Commercial name                          : DTS-HD Master Audio
  52. Codec ID                                 : A_DTS
  53. Duration                                 : 1 h 21 min
  54. Bit rate mode                            : Variable
  55. Bit rate                                 : 4 325 kb/s
  56. Channel(s)                               : 8 channels
  57. Channel layout                           : C L R LFE Lb Rb Lss Rss
  58. Sampling rate                            : 48.0 kHz
  59. Frame rate                               : 93.750 FPS (512 SPF)
  60. Bit depth                                : 24 bits
  61. Compression mode                         : Lossless
  62. Stream size                              : 2.45 GiB (13%)
  63. Title                                    : Toy.Story.1995.2160p.BluRay.x265.10bit.SDR.DTS-HD.MA.TrueHD.7.1.Atmos-SWTYBLZ
  64. Language                                 : English
  65. Default                                  : No
  66. Forced                                   : No
  67. Audio #3
  68. ID                                       : 4
  69. Format                                   : AC-3
  70. Format/Info                              : Audio Coding 3
  71. Commercial name                          : Dolby Digital
  72. Codec ID                                 : A_AC3
  73. Duration                                 : 1 h 21 min
  74. Bit rate mode                            : Constant
  75. Bit rate                                 : 640 kb/s
  76. Channel(s)                               : 6 channels
  77. Channel layout                           : L R C LFE Ls Rs
  78. Sampling rate                            : 48.0 kHz
  79. Frame rate                               : 31.250 FPS (1536 SPF)
  80. Bit depth                                : 16 bits
  81. Compression mode                         : Lossy
  82. Stream size                              : 371 MiB (2%)
  83. Title                                    : Toy.Story.1995.2160p.BluRay.x265.10bit.SDR.DTS-HD.MA.TrueHD.7.1.Atmos-SWTYBLZ
  84. Language                                 : English
  85. Service kind                             : Complete Main
  86. Default                                  : No
  87. Forced                                   : No
  88. Text #1
  89. ID                                       : 5
  90. Format                                   : UTF-8
  91. Codec ID                                 : S_TEXT/UTF8
  92. Codec ID/Info                            : UTF-8 Plain Text
  93. Duration                                 : 1 h 18 min
  94. Bit rate                                 : 71 b/s
  95. Count of elements                        : 1185
  96. Stream size                              : 40.9 KiB (0%)
  97. Title                                    : English-SRT
  98. Language                                 : English
  99. Default                                  : Yes
  100. Forced                                   : No
  101. Text #2
  102. ID                                       : 6
  103. Format                                   : PGS
  104. Muxing mode                              : zlib
  105. Codec ID                                 : S_HDMV/PGS
  106. Codec ID/Info                            : Picture based subtitle format used on BDs/HD-DVDs
  107. Duration                                 : 1 h 18 min
  108. Bit rate                                 : 54.7 kb/s
  109. Count of elements                        : 2772
  110. Stream size                              : 30.5 MiB (0%)
  111. Title                                    : English-SDH-PGS
  112. Language                                 : English
  113. Default                                  : No
  114. Forced                                   : No
  115. Text #3
  116. ID                                       : 7
  117. Format                                   : PGS
  118. Muxing mode                              : zlib
  119. Codec ID                                 : S_HDMV/PGS
  120. Codec ID/Info                            : Picture based subtitle format used on BDs/HD-DVDs
  121. Duration                                 : 1 h 18 min
  122. Bit rate                                 : 43.0 kb/s
  123. Count of elements                        : 2286
  124. Stream size                              : 24.0 MiB (0%)
  125. Title                                    : English-PGS
  126. Language                                 : English
  127. Default                                  : No
  128. Forced                                   : No
  129. Text #4
  130. ID                                       : 8
  131. Format                                   : PGS
  132. Muxing mode                              : zlib
  133. Codec ID                                 : S_HDMV/PGS
  134. Codec ID/Info                            : Picture based subtitle format used on BDs/HD-DVDs
  135. Duration                                 : 1 h 18 min
  136. Bit rate                                 : 31.9 kb/s
  137. Count of elements                        : 1974
  138. Stream size                              : 17.8 MiB (0%)
  139. Title                                    : French-PGS
  140. Language                                 : French
  141. Default                                  : No
  142. Forced                                   : No
  143. Text #5
  144. ID                                       : 9
  145. Format                                   : PGS
  146. Muxing mode                              : zlib
  147. Codec ID                                 : S_HDMV/PGS
  148. Codec ID/Info                            : Picture based subtitle format used on BDs/HD-DVDs
  149. Duration                                 : 1 h 18 min
  150. Bit rate                                 : 40.4 kb/s
  151. Count of elements                        : 2098
  152. Stream size                              : 22.6 MiB (0%)
  153. Title                                    : Spanish-PGS
  154. Language                                 : Spanish
  155. Default                                  : No
  156. Forced                                   : No
  157. Text #6
  158. ID                                       : 10
  159. Format                                   : PGS
  160. Muxing mode                              : zlib
  161. Codec ID                                 : S_HDMV/PGS
  162. Codec ID/Info                            : Picture based subtitle format used on BDs/HD-DVDs
  163. Duration                                 : 1 h 18 min
  164. Bit rate                                 : 25.9 kb/s
  165. Count of elements                        : 2072
  166. Stream size                              : 14.5 MiB (0%)
  167. Title                                    : Japanese-PGS
  168. Language                                 : Japanese
  169. Default                                  : No
  170. Forced                                   : No
  171. Text #7
  172. ID                                       : 11
  173. Format                                   : PGS
  174. Muxing mode                              : zlib
  175. Codec ID                                 : S_HDMV/PGS
  176. Codec ID/Info                            : Picture based subtitle format used on BDs/HD-DVDs
  177. Duration                                 : 1 s 335 ms
  178. Bit rate                                 : 47.7 kb/s
  179. Count of elements                        : 2
  180. Stream size                              : 7.78 KiB (0%)
  181. Title                                    : Japanese-PGS
  182. Language                                 : Japanese
  183. Default                                  : No
  184. Forced                                   : No
  185. Menu
  186. 00:00:00.000                             : en:Chapter 01
  187. 00:02:03.081                             : en:Chapter 02
  188. 00:04:00.949                             : en:Chapter 03
  189. 00:06:34.852                             : en:Chapter 04
  190. 00:09:20.101                             : en:Chapter 05
  191. 00:14:17.815                             : en:Chapter 06
  192. 00:20:10.959                             : en:Chapter 07
  193. 00:22:18.045                             : en:Chapter 08
  194. 00:24:25.422                             : en:Chapter 09
  195. 00:26:02.060                             : en:Chapter 10
  196. 00:29:29.768                             : en:Chapter 11
  197. 00:30:09.849                             : en:Chapter 12
  198. 00:35:10.399                             : en:Chapter 13
  199. 00:39:26.238                             : en:Chapter 14
  200. 00:43:00.286                             : en:Chapter 15
  201. 00:43:44.163                             : en:Chapter 16
  202. 00:46:26.533                             : en:Chapter 17
  203. 00:47:21.004                             : en:Chapter 18
  204. 00:49:08.946                             : en:Chapter 19
  205. 00:51:08.982                             : en:Chapter 20
  206. 00:53:50.769                             : en:Chapter 21
  207. 00:56:24.381                             : en:Chapter 22
  208. 00:57:15.598                             : en:Chapter 23
  209. 01:01:41.698                             : en:Chapter 24
  210. 01:02:50.933                             : en:Chapter 25
  211. 01:04:49.927                             : en:Chapter 26
  212. 01:07:59.492                             : en:Chapter 27
  213. 01:13:11.136                             : en:Chapter 28
  214. 01:15:40.827                             : en:Chapter 29
  215. 01:17:09.207                             : en:Chapter 30
复制代码









                                       
                                       

                                       
                                       
                                       




回复

使用道具 举报

懒得打字嘛,点击右侧快捷回复 【右侧内容,后台自定义】
您需要登录后才可以回帖 登录 | 立即加入

本版积分规则

Archiver|小黑屋| 蓝光电影网 |网站地图

Copyright © 2021 Comsenz Inc. Powered by 蓝光电影网

蓝光电影网

本站内容由用户自主分享和转载自互联网,转载目的在于传递更多信息,并不代表本网赞同其观点和对其真实性负责。

如有侵权、违反国家法律政策行为,请联系我们,我们会第一时间及时清除和处理!

举报反馈邮箱:[email protected]

快速回复 返回顶部 返回列表