找回密码

蓝光电影网

查看: 12|回复: 0

[2160p] 蝙蝠侠 Batman.1989.2160p.BluRay.x264.8bit.SDR.DTS-HD.MA.TrueHD.7.1.Atmos-SWTYBLZ 59.35GB

[复制链接]
蓝光币
382
发表于 2019-5-31 12:58:03 | 显示全部楼层 |阅读模式


◎译  名 蝙蝠侠
◎片  名 Batman
◎年  代 1989
◎产  地 美国 / 英国
◎类  别 行动 / 科幻
◎语  言 英语 / 法语
◎上映日期 1989-06-23
◎IMDb评分  7.6/10 from 312494 users
◎IMDb链接  http://www.imdb.com/title/tt0096895
◎豆瓣评分 7.3/10 from 33696 users
◎豆瓣链接 https://movie.douban.com/subject/1297970/
◎片  长 126 分钟
◎导  演 Tim Burton
◎编  剧 Sam Hamm / Warren Skaaren / Bob Kane
◎主  演 迈克尔·基顿 Michael Keaton
      杰克·尼科尔森 Jack Nicholson
      金·贝辛格 Kim Basinger
      罗伯特·乌尔 Robert Wuhl
      帕特·亨格尔 Pat Hingle
      比利·迪·威廉姆斯 Billy Dee Williams
      迈克尔·高夫 Michael Gough
      杰克·帕兰斯 Jack Palance
      杰瑞·霍尔 Jerry Hall
      崔西·沃特 Tracey Walter
      Lee Wallace
      威廉姆·霍金斯 William Hootkins
      Richard Strange
      Carl Chase
      麦克·麦克唐纳德 Mac McDonald

◎标  签 美国 | 科幻 | 蝙蝠侠 | TimBurton | 漫画改编 | 行动 | 1989 | 美国电影
◎简  介  
  在罪行横行的高汉市,有一个令罪犯们心惊胆颤的名字:蝙蝠侠。蝙蝠侠(迈克尔?基顿 Michael Keaton 饰)穿越于最黑暗的角落,四周冲击罪行。在一次冲击罪行的行动中,蝙蝠侠令强盗尼巴(杰克?尼科尔森 Jack Nicholson  饰)落入了化学池。尼巴是以面部神承受损,成了永久咧嘴笑的笑面人,人称“小丑”。
“小丑”杀死了团伙的首领,控制了全部高汉市的黑道。“小丑”操纵化学药品让人失笑而死,他用这类方式攻击了博物馆,幸得蝙蝠侠实时赶到,挫败了“小丑”的诡计。在女友碧姬(金?贝辛格 Kim Basinger 饰)家里时,“小丑”忽然攻击,蝙蝠侠奇妙躲过了攻击,意外发现“小丑”就是杀死自己的怙恃的仇人。
“小丑”此次虏走了蝙蝠侠的女友碧姬,约定蝙蝠在教堂楼顶决一死战!
◎获奖情况  
  第62届奥斯卡金像奖(1990)
  最好艺术指导 安东·福斯特 / Peter Young

  1. Video
  2. ID                                       : 1
  3. Format                                   : AVC
  4. Format/Info                              : Advanced Video Codec
  5. Format profile                           : [email protected]
  6. Format settings                          : CABAC / 5 Ref Frames
  7. Format settings, CABAC                   : Yes
  8. Format settings, RefFrames               : 5 frames
  9. Codec ID                                 : V_MPEG4/ISO/AVC
  10. Duration                                 : 2 h 6 min
  11. Bit rate                                 : 58.0 Mb/s
  12. Width                                    : 3 840 pixels
  13. Height                                   : 2 076 pixels
  14. Display aspect ratio                     : 1.85:1
  15. Frame rate mode                          : Constant
  16. Frame rate                               : 23.976 (24000/1001) FPS
  17. Color space                              : YUV
  18. Chroma subsampling                       : 4:2:0
  19. Bit depth                                : 8 bits
  20. Scan type                                : Progressive
  21. Bits/(Pixel*Frame)                       : 0.303
  22. Stream size                              : 51.2 GiB (87%)
  23. Title                                    : Batman.1989.2160p.BluRay.x264.8bit.SDR.DTS-HD.MA.TrueHD.7.1.Atmos-SWTYBLZ
  24. Writing library                          : x264 core 157 r2935 545de2f
  25. Encoding settings                        : cabac=1 / ref=5 / deblock=1:-1:-1 / analyse=0x3:0x113 / me=umh / subme=10 / psy=1 / psy_rd=1.00:0.15 / mixed_ref=1 / me_range=48 / chroma_me=1 / trellis=2 / 8x8dct=1 / cqm=0 / deadzone=21,11 / fast_pskip=1 / chroma_qp_offset=-3 / threads=48 / lookahead_threads=4 / sliced_threads=0 / nr=0 / decimate=0 / interlaced=0 / bluray_compat=0 / constrained_intra=0 / bframes=3 / b_pyramid=2 / b_adapt=2 / b_bias=0 / direct=3 / weightb=1 / open_gop=0 / weightp=2 / keyint=250 / keyint_min=23 / scenecut=40 / intra_refresh=0 / rc_lookahead=50 / rc=crf / mbtree=1 / crf=18.0 / qcomp=0.60 / qpmin=0 / qpmax=69 / qpstep=4 / ip_ratio=1.40 / aq=1:1.00
  26. Default                                  : Yes
  27. Forced                                   : No
  28. Audio #1
  29. ID                                       : 2
  30. Format                                   : MLP FBA 16-ch
  31. Format/Info                              : Meridian Lossless Packing FBA with 16-channel presentation
  32. Commercial name                          : Dolby TrueHD with Dolby Atmos
  33. Codec ID                                 : A_TRUEHD
  34. Duration                                 : 2 h 6 min
  35. Bit rate mode                            : Variable
  36. Bit rate                                 : 3 772 kb/s
  37. Maximum bit rate                         : 6 912 kb/s
  38. Channel(s)                               : 8 channels
  39. Channel layout                           : L R C LFE Ls Rs Lb Rb
  40. Sampling rate                            : 48.0 kHz
  41. Frame rate                               : 1 200.000 FPS (40 SPF)
  42. Compression mode                         : Lossless
  43. Stream size                              : 3.33 GiB (6%)
  44. Title                                    : Batman.1989.2160p.BluRay.x264.8bit.SDR.DTS-HD.MA.TrueHD.7.1.Atmos-SWTYBLZ
  45. Language                                 : English
  46. Default                                  : Yes
  47. Forced                                   : No
  48. Number of dynamic objects                : 15
  49. Bed channel count                        : 1 channel
  50. Bed channel configuration                : LFE
  51. Audio #2
  52. ID                                       : 3
  53. Format                                   : DTS XLL
  54. Format/Info                              : Digital Theater Systems
  55. Commercial name                          : DTS-HD Master Audio
  56. Codec ID                                 : A_DTS
  57. Duration                                 : 2 h 6 min
  58. Bit rate mode                            : Variable
  59. Bit rate                                 : 4 301 kb/s
  60. Channel(s)                               : 8 channels
  61. Channel layout                           : C L R LFE Lb Rb Lss Rss
  62. Sampling rate                            : 48.0 kHz
  63. Frame rate                               : 93.750 FPS (512 SPF)
  64. Bit depth                                : 24 bits
  65. Compression mode                         : Lossless
  66. Stream size                              : 3.79 GiB (6%)
  67. Title                                    : Batman.1989.2160p.BluRay.x264.8bit.SDR.DTS-HD.MA.TrueHD.7.1.Atmos-SWTYBLZ
  68. Language                                 : English
  69. Default                                  : No
  70. Forced                                   : No
  71. Audio #3
  72. ID                                       : 4
  73. Format                                   : AC-3
  74. Format/Info                              : Audio Coding 3
  75. Commercial name                          : Dolby Digital
  76. Codec ID                                 : A_AC3
  77. Duration                                 : 2 h 6 min
  78. Bit rate mode                            : Constant
  79. Bit rate                                 : 640 kb/s
  80. Channel(s)                               : 6 channels
  81. Channel layout                           : L R C LFE Ls Rs
  82. Sampling rate                            : 48.0 kHz
  83. Frame rate                               : 31.250 FPS (1536 SPF)
  84. Bit depth                                : 16 bits
  85. Compression mode                         : Lossy
  86. Stream size                              : 578 MiB (1%)
  87. Title                                    : Batman.1989.2160p.BluRay.x264.8bit.SDR.DTS-HD.MA.TrueHD.7.1.Atmos-SWTYBLZ
  88. Language                                 : English
  89. Service kind                             : Complete Main
  90. Default                                  : No
  91. Forced                                   : No
  92. Text #1
  93. ID                                       : 5
  94. Format                                   : UTF-8
  95. Codec ID                                 : S_TEXT/UTF8
  96. Codec ID/Info                            : UTF-8 Plain Text
  97. Duration                                 : 1 h 58 min
  98. Bit rate                                 : 39 b/s
  99. Count of elements                        : 1015
  100. Stream size                              : 34.4 KiB (0%)
  101. Title                                    : English-SRT
  102. Language                                 : English
  103. Default                                  : Yes
  104. Forced                                   : No
  105. Text #2
  106. ID                                       : 6
  107. Format                                   : UTF-8
  108. Codec ID                                 : S_TEXT/UTF8
  109. Codec ID/Info                            : UTF-8 Plain Text
  110. Duration                                 : 1 h 59 min
  111. Bit rate                                 : 41 b/s
  112. Count of elements                        : 1108
  113. Stream size                              : 36.4 KiB (0%)
  114. Title                                    : English-SDH-SRT
  115. Language                                 : English
  116. Default                                  : No
  117. Forced                                   : No
  118. Text #3
  119. ID                                       : 7
  120. Format                                   : PGS
  121. Muxing mode                              : zlib
  122. Codec ID                                 : S_HDMV/PGS
  123. Codec ID/Info                            : Picture based subtitle format used on BDs/HD-DVDs
  124. Duration                                 : 1 h 59 min
  125. Bit rate                                 : 22.4 kb/s
  126. Count of elements                        : 2216
  127. Stream size                              : 19.1 MiB (0%)
  128. Title                                    : English-PGS
  129. Language                                 : English
  130. Default                                  : No
  131. Forced                                   : No
  132. Text #4
  133. ID                                       : 8
  134. Format                                   : PGS
  135. Muxing mode                              : zlib
  136. Codec ID                                 : S_HDMV/PGS
  137. Codec ID/Info                            : Picture based subtitle format used on BDs/HD-DVDs
  138. Duration                                 : 1 h 58 min
  139. Bit rate                                 : 18.9 kb/s
  140. Count of elements                        : 2056
  141. Stream size                              : 16.1 MiB (0%)
  142. Title                                    : French-PGS
  143. Language                                 : French
  144. Default                                  : No
  145. Forced                                   : No
  146. Text #5
  147. ID                                       : 9
  148. Format                                   : PGS
  149. Muxing mode                              : zlib
  150. Codec ID                                 : S_HDMV/PGS
  151. Codec ID/Info                            : Picture based subtitle format used on BDs/HD-DVDs
  152. Duration                                 : 2 h 3 min
  153. Bit rate                                 : 19.1 kb/s
  154. Count of elements                        : 2086
  155. Stream size                              : 16.9 MiB (0%)
  156. Title                                    : Spanish-PGS
  157. Language                                 : Spanish
  158. Default                                  : No
  159. Forced                                   : No
  160. Text #6
  161. ID                                       : 10
  162. Format                                   : PGS
  163. Muxing mode                              : zlib
  164. Codec ID                                 : S_HDMV/PGS
  165. Codec ID/Info                            : Picture based subtitle format used on BDs/HD-DVDs
  166. Duration                                 : 2 h 0 min
  167. Bit rate                                 : 19.6 kb/s
  168. Count of elements                        : 2108
  169. Stream size                              : 17.0 MiB (0%)
  170. Title                                    : Spanish-PGS
  171. Language                                 : Spanish
  172. Default                                  : No
  173. Forced                                   : No
  174. Text #7
  175. ID                                       : 11
  176. Format                                   : PGS
  177. Muxing mode                              : zlib
  178. Codec ID                                 : S_HDMV/PGS
  179. Codec ID/Info                            : Picture based subtitle format used on BDs/HD-DVDs
  180. Duration                                 : 2 h 3 min
  181. Bit rate                                 : 18.5 kb/s
  182. Count of elements                        : 2174
  183. Stream size                              : 16.4 MiB (0%)
  184. Title                                    : Italian-PGS
  185. Language                                 : Italian
  186. Default                                  : No
  187. Forced                                   : No
  188. Text #8
  189. ID                                       : 12
  190. Format                                   : PGS
  191. Muxing mode                              : zlib
  192. Codec ID                                 : S_HDMV/PGS
  193. Codec ID/Info                            : Picture based subtitle format used on BDs/HD-DVDs
  194. Duration                                 : 2 h 3 min
  195. Bit rate                                 : 19.4 kb/s
  196. Count of elements                        : 2074
  197. Stream size                              : 17.1 MiB (0%)
  198. Title                                    : German-PGS
  199. Language                                 : German
  200. Default                                  : No
  201. Forced                                   : No
  202. Text #9
  203. ID                                       : 13
  204. Format                                   : PGS
  205. Muxing mode                              : zlib
  206. Codec ID                                 : S_HDMV/PGS
  207. Codec ID/Info                            : Picture based subtitle format used on BDs/HD-DVDs
  208. Duration                                 : 1 h 58 min
  209. Bit rate                                 : 19.1 kb/s
  210. Count of elements                        : 2060
  211. Stream size                              : 16.2 MiB (0%)
  212. Title                                    : Dutch-PGS
  213. Language                                 : Dutch
  214. Default                                  : No
  215. Forced                                   : No
  216. Text #10
  217. ID                                       : 14
  218. Format                                   : PGS
  219. Muxing mode                              : zlib
  220. Codec ID                                 : S_HDMV/PGS
  221. Codec ID/Info                            : Picture based subtitle format used on BDs/HD-DVDs
  222. Duration                                 : 1 h 58 min
  223. Bit rate                                 : 17.0 kb/s
  224. Count of elements                        : 2074
  225. Stream size                              : 14.4 MiB (0%)
  226. Title                                    : Swedish-PGS
  227. Language                                 : Swedish
  228. Default                                  : No
  229. Forced                                   : No
  230. Text #11
  231. ID                                       : 15
  232. Format                                   : PGS
  233. Muxing mode                              : zlib
  234. Codec ID                                 : S_HDMV/PGS
  235. Codec ID/Info                            : Picture based subtitle format used on BDs/HD-DVDs
  236. Duration                                 : 1 h 58 min
  237. Bit rate                                 : 18.6 kb/s
  238. Count of elements                        : 2082
  239. Stream size                              : 15.8 MiB (0%)
  240. Title                                    : Norwegian-PGS
  241. Language                                 : Norwegian
  242. Default                                  : No
  243. Forced                                   : No
  244. Text #12
  245. ID                                       : 16
  246. Format                                   : PGS
  247. Muxing mode                              : zlib
  248. Codec ID                                 : S_HDMV/PGS
  249. Codec ID/Info                            : Picture based subtitle format used on BDs/HD-DVDs
  250. Duration                                 : 1 h 58 min
  251. Bit rate                                 : 17.2 kb/s
  252. Count of elements                        : 2080
  253. Stream size                              : 14.6 MiB (0%)
  254. Title                                    : Danish-PGS
  255. Language                                 : Danish
  256. Default                                  : No
  257. Forced                                   : No
  258. Text #13
  259. ID                                       : 17
  260. Format                                   : PGS
  261. Muxing mode                              : zlib
  262. Codec ID                                 : S_HDMV/PGS
  263. Codec ID/Info                            : Picture based subtitle format used on BDs/HD-DVDs
  264. Duration                                 : 1 h 58 min
  265. Bit rate                                 : 18.2 kb/s
  266. Count of elements                        : 2084
  267. Stream size                              : 15.5 MiB (0%)
  268. Title                                    : Finnish-PGS
  269. Language                                 : Finnish
  270. Default                                  : No
  271. Forced                                   : No
  272. Text #14
  273. ID                                       : 18
  274. Format                                   : PGS
  275. Muxing mode                              : zlib
  276. Codec ID                                 : S_HDMV/PGS
  277. Codec ID/Info                            : Picture based subtitle format used on BDs/HD-DVDs
  278. Duration                                 : 1 h 59 min
  279. Bit rate                                 : 17.7 kb/s
  280. Count of elements                        : 2014
  281. Stream size                              : 15.1 MiB (0%)
  282. Title                                    : Russian-PGS
  283. Language                                 : Russian
  284. Default                                  : No
  285. Forced                                   : No
  286. Text #15
  287. ID                                       : 19
  288. Format                                   : PGS
  289. Muxing mode                              : zlib
  290. Codec ID                                 : S_HDMV/PGS
  291. Codec ID/Info                            : Picture based subtitle format used on BDs/HD-DVDs
  292. Duration                                 : 1 h 59 min
  293. Bit rate                                 : 17.3 kb/s
  294. Count of elements                        : 2086
  295. Stream size                              : 14.7 MiB (0%)
  296. Title                                    : Czech-PGS
  297. Language                                 : Czech
  298. Default                                  : No
  299. Forced                                   : No
  300. Text #16
  301. ID                                       : 20
  302. Format                                   : PGS
  303. Muxing mode                              : zlib
  304. Codec ID                                 : S_HDMV/PGS
  305. Codec ID/Info                            : Picture based subtitle format used on BDs/HD-DVDs
  306. Duration                                 : 1 h 59 min
  307. Bit rate                                 : 19.4 kb/s
  308. Count of elements                        : 1972
  309. Stream size                              : 16.5 MiB (0%)
  310. Title                                    : Polish-PGS
  311. Language                                 : Polish
  312. Default                                  : No
  313. Forced                                   : No
  314. Text #17
  315. ID                                       : 21
  316. Format                                   : PGS
  317. Muxing mode                              : zlib
  318. Codec ID                                 : S_HDMV/PGS
  319. Codec ID/Info                            : Picture based subtitle format used on BDs/HD-DVDs
  320. Duration                                 : 1 h 59 min
  321. Bit rate                                 : 20.6 kb/s
  322. Count of elements                        : 2084
  323. Stream size                              : 17.6 MiB (0%)
  324. Title                                    : Hungarian-PGS
  325. Language                                 : Hungarian
  326. Default                                  : No
  327. Forced                                   : No
  328. Text #18
  329. ID                                       : 22
  330. Format                                   : PGS
  331. Muxing mode                              : zlib
  332. Codec ID                                 : S_HDMV/PGS
  333. Codec ID/Info                            : Picture based subtitle format used on BDs/HD-DVDs
  334. Duration                                 : 2 h 1 min
  335. Bit rate                                 : 11.5 kb/s
  336. Count of elements                        : 2096
  337. Stream size                              : 9.99 MiB (0%)
  338. Title                                    : Arabic-PGS
  339. Language                                 : Arabic
  340. Default                                  : No
  341. Forced                                   : No
  342. Text #19
  343. ID                                       : 23
  344. Format                                   : PGS
  345. Muxing mode                              : zlib
  346. Codec ID                                 : S_HDMV/PGS
  347. Codec ID/Info                            : Picture based subtitle format used on BDs/HD-DVDs
  348. Duration                                 : 2 h 0 min
  349. Bit rate                                 : 14.3 kb/s
  350. Count of elements                        : 1928
  351. Stream size                              : 12.4 MiB (0%)
  352. Title                                    : Japanese-PGS
  353. Language                                 : Japanese
  354. Default                                  : No
  355. Forced                                   : No
  356. Text #20
  357. ID                                       : 24
  358. Format                                   : PGS
  359. Muxing mode                              : zlib
  360. Codec ID                                 : S_HDMV/PGS
  361. Codec ID/Info                            : Picture based subtitle format used on BDs/HD-DVDs
  362. Duration                                 : 2 h 3 min
  363. Bit rate                                 : 32.9 kb/s
  364. Count of elements                        : 2780
  365. Stream size                              : 29.0 MiB (0%)
  366. Title                                    : Japanese-PGS
  367. Language                                 : Japanese
  368. Default                                  : No
  369. Forced                                   : No
  370. Text #21
  371. ID                                       : 25
  372. Format                                   : PGS
  373. Muxing mode                              : zlib
  374. Codec ID                                 : S_HDMV/PGS
  375. Codec ID/Info                            : Picture based subtitle format used on BDs/HD-DVDs
  376. Duration                                 : 2 h 1 min
  377. Bit rate                                 : 15.9 kb/s
  378. Count of elements                        : 2116
  379. Stream size                              : 13.8 MiB (0%)
  380. Title                                    : Chinese-PGS
  381. Language                                 : Chinese
  382. Default                                  : No
  383. Forced                                   : No
  384. Text #22
  385. ID                                       : 26
  386. Format                                   : PGS
  387. Muxing mode                              : zlib
  388. Codec ID                                 : S_HDMV/PGS
  389. Codec ID/Info                            : Picture based subtitle format used on BDs/HD-DVDs
  390. Duration                                 : 1 h 58 min
  391. Bit rate                                 : 17.5 kb/s
  392. Count of elements                        : 1928
  393. Stream size                              : 14.9 MiB (0%)
  394. Title                                    : Chinese-PGS
  395. Language                                 : Chinese
  396. Default                                  : No
  397. Forced                                   : No
  398. Text #23
  399. ID                                       : 27
  400. Format                                   : PGS
  401. Muxing mode                              : zlib
  402. Codec ID                                 : S_HDMV/PGS
  403. Codec ID/Info                            : Picture based subtitle format used on BDs/HD-DVDs
  404. Duration                                 : 1 h 58 min
  405. Bit rate                                 : 17.2 kb/s
  406. Count of elements                        : 1928
  407. Stream size                              : 14.6 MiB (0%)
  408. Title                                    : Chinese-PGS
  409. Language                                 : Chinese
  410. Default                                  : No
  411. Forced                                   : No
  412. Text #24
  413. ID                                       : 28
  414. Format                                   : PGS
  415. Muxing mode                              : zlib
  416. Codec ID                                 : S_HDMV/PGS
  417. Codec ID/Info                            : Picture based subtitle format used on BDs/HD-DVDs
  418. Duration                                 : 2 h 1 min
  419. Bit rate                                 : 14.2 kb/s
  420. Count of elements                        : 2084
  421. Stream size                              : 12.3 MiB (0%)
  422. Title                                    : Korean-PGS
  423. Language                                 : Korean
  424. Default                                  : No
  425. Forced                                   : No
  426. Text #25
  427. ID                                       : 29
  428. Format                                   : PGS
  429. Muxing mode                              : zlib
  430. Codec ID                                 : S_HDMV/PGS
  431. Codec ID/Info                            : Picture based subtitle format used on BDs/HD-DVDs
  432. Duration                                 : 2 h 1 min
  433. Bit rate                                 : 19.6 kb/s
  434. Count of elements                        : 2148
  435. Stream size                              : 17.0 MiB (0%)
  436. Title                                    : Thai-PGS
  437. Language                                 : Thai
  438. Default                                  : No
  439. Forced                                   : No
  440. Menu
  441. 00:00:00.000                             : en:Chapter 01
  442. 00:02:33.153                             : en:Chapter 02
  443. 00:07:03.590                             : en:Chapter 03
  444. 00:09:26.566                             : en:Chapter 04
  445. 00:12:21.991                             : en:Chapter 05
  446. 00:14:41.839                             : en:Chapter 06
  447. 00:17:03.564                             : en:Chapter 07
  448. 00:20:05.287                             : en:Chapter 08
  449. 00:23:57.811                             : en:Chapter 09
  450. 00:27:05.749                             : en:Chapter 10
  451. 00:30:25.365                             : en:Chapter 11
  452. 00:34:12.259                             : en:Chapter 12
  453. 00:36:13.546                             : en:Chapter 13
  454. 00:38:24.302                             : en:Chapter 14
  455. 00:41:06.047                             : en:Chapter 15
  456. 00:45:06.495                             : en:Chapter 16
  457. 00:48:06.801                             : en:Chapter 17
  458. 00:50:51.465                             : en:Chapter 18
  459. 00:54:18.881                             : en:Chapter 19
  460. 00:57:54.096                             : en:Chapter 20
  461. 00:59:34.070                             : en:Chapter 21
  462. 01:06:37.785                             : en:Chapter 22
  463. 01:12:23.923                             : en:Chapter 23
  464. 01:16:28.959                             : en:Chapter 24
  465. 01:18:18.861                             : en:Chapter 25
  466. 01:21:10.449                             : en:Chapter 26
  467. 01:25:29.833                             : en:Chapter 27
  468. 01:27:24.739                             : en:Chapter 28
  469. 01:29:32.701                             : en:Chapter 29
  470. 01:33:57.799                             : en:Chapter 30
  471. 01:35:50.119                             : en:Chapter 31
  472. 01:38:15.556                             : en:Chapter 32
  473. 01:42:43.616                             : en:Chapter 33
  474. 01:46:34.013                             : en:Chapter 34
  475. 01:50:10.729                             : en:Chapter 35
  476. 01:53:19.960                             : en:Chapter 36
  477. 01:59:42.967                             : en:Chapter 37
  478. 02:02:30.134                             : en:Chapter 38
复制代码









                                       
                                       

                                       
                                       
                                       




回复

使用道具 举报

懒得打字嘛,点击右侧快捷回复 【右侧内容,后台自定义】
您需要登录后才可以回帖 登录 | 立即加入

本版积分规则

Archiver|小黑屋| 蓝光电影网 |网站地图

Copyright © 2021 Comsenz Inc. Powered by 蓝光电影网

蓝光电影网

本站内容由用户自主分享和转载自互联网,转载目的在于传递更多信息,并不代表本网赞同其观点和对其真实性负责。

如有侵权、违反国家法律政策行为,请联系我们,我们会第一时间及时清除和处理!

举报反馈邮箱:[email protected]

快速回复 返回顶部 返回列表