找回密码

蓝光电影网

查看: 8|回复: 0

[UHD.HEVC] 玻璃先生/不死劫2 Glass.2019.2160p.BluRay.REMUX.HEVC.DTS-HD.MA.TrueHD.7.1.Atmos-FGT 68.59GB

[复制链接]
蓝光币
382
发表于 2019-5-22 20:55:47 | 显示全部楼层 |阅读模式




◎译  名 玻璃师长 / 不死劫2 / 割裂2 / 异能仨(港) / 异裂(台) / 波利师长
◎片  名 Glass
◎年  代 2019
◎产  地 美国
◎类  别 悬疑 / 惊悚 / 犯罪
◎语  言 英语
◎上映日期 2019-01-18(美国)
◎IMDb评分  6.8/10 from 124350 users
◎IMDb链接  http://www.imdb.com/title/tt6823368
◎豆瓣评分 6.4/10 from 11864 users
◎豆瓣链接 https://movie.douban.com/subject/27031237/
◎片  长 129分钟
◎导  演 M·奈特·沙马兰 M. Night Shyamalan
◎编  剧 M·奈特·沙马兰 M. Night Shyamalan
◎主  演 詹姆斯·麦卡沃伊 James McAvoy
      布鲁斯·威利斯 Bruce Willis
      塞缪尔·杰克逊 Samuel L. Jackson
      安雅·泰勒-乔伊 Anya Taylor-Joy
      莎拉·保罗森 Sarah Paulson
      斯宾塞·崔特·克拉克 Spencer Treat Clark
      查莱宁·伍德拉德 Charlayne Woodard
      卢克·科比  Luke Kirby
      亚当·大卫·汤普森 Adam David Thompson
      M·奈特·沙马兰 M. Night Shyamalan
      戴安娜·希维斯 Diana Silvers
      克里·锡安 Kyli Zion
      罗素·普斯勒 Russell Posner
      罗丝玛丽·霍华德 Rosemary Howard
      莱斯利·史蒂芬森 Leslie Stefanson
      尤基·华盛顿 Ukee Washington
      布赖恩·安东尼·威尔逊 Brian Anthony Wilson
      托拜厄斯·西格尔 Tobias Segal
      蒂姆·杜奎特 Tim Duquette
      朱塞佩·阿迪松 Giuseppe Ardizzone
      大卫·克尼里安 David Kneeream
      布莱恩·多纳休 Brian Donahue
      奥罗拉·卡琳 Aurora Karine
      迈克尔·J·克雷米 Michael J. Kraycik
      迈克尔·J·莱昂斯 Michael J. Lyons

◎标  签 美国 | 悬疑 | 惊悚 | 2019 | 超自然 | 品德割裂 | 超级豪杰 | 沙马兰
◎简  介  
  故事报告玻璃师长(塞缪尔·杰克逊 饰)发现大卫·杜恩(布鲁斯·威利斯 饰)正在追捕凯文·温德尔·克鲁伯(詹姆斯·麦卡沃伊 饰)的品德割裂化身之一“野兽”,而他手中则把握对两者来说相当重要的奥秘......
◎获奖情况  
  第39届伦敦影评人协会奖(2019)
  年度英国/爱尔兰小演员(提名) 安雅·泰勒-乔伊

  1. Video
  2. ID                                       : 1
  3. Format                                   : HEVC
  4. Format/Info                              : High Efficiency Video Coding
  5. Commercial name                          : HDR10
  6. Format profile                           : Main [email protected]@High
  7. Codec ID                                 : V_MPEGH/ISO/HEVC
  8. Duration                                 : 2 h 9 min
  9. Bit rate                                 : 65.7 Mb/s
  10. Width                                    : 3 840 pixels
  11. Height                                   : 2 160 pixels
  12. Display aspect ratio                     : 16:9
  13. Frame rate mode                          : Constant
  14. Frame rate                               : 23.976 (24000/1001) FPS
  15. Color space                              : YUV
  16. Chroma subsampling                       : 4:2:0 (Type 2)
  17. Bit depth                                : 10 bits
  18. Bits/(Pixel*Frame)                       : 0.330
  19. Stream size                              : 59.2 GiB (86%)
  20. Title                                    : Glass.2019.2160p.BluRay.REMUX.HEVC.DTS-HD.MA.TrueHD.7.1.Atmos-FGT
  21. Default                                  : Yes
  22. Forced                                   : No
  23. Color range                              : Limited
  24. Color primaries                          : BT.2020
  25. Transfer characteristics                 : PQ
  26. Matrix coefficients                      : BT.2020 non-constant
  27. Mastering display color primaries        : Display P3
  28. Mastering display luminance              : min: 0.0050 cd/m2, max: 1000 cd/m2
  29. Maximum Content Light Level              : 457 cd/m2
  30. Maximum Frame-Average Light Level        : 182 cd/m2
  31. Audio #1
  32. ID                                       : 2
  33. Format                                   : MLP FBA 16-ch
  34. Format/Info                              : Meridian Lossless Packing FBA with 16-channel presentation
  35. Commercial name                          : Dolby TrueHD with Dolby Atmos
  36. Codec ID                                 : A_TRUEHD
  37. Duration                                 : 2 h 9 min
  38. Bit rate mode                            : Variable
  39. Bit rate                                 : 4 109 kb/s
  40. Maximum bit rate                         : 7 326 kb/s
  41. Channel(s)                               : 8 channels
  42. Channel layout                           : L R C LFE Ls Rs Lb Rb
  43. Sampling rate                            : 48.0 kHz
  44. Frame rate                               : 1 200.000 FPS (40 SPF)
  45. Compression mode                         : Lossless
  46. Stream size                              : 3.70 GiB (5%)
  47. Title                                    : Glass.2019.2160p.BluRay.REMUX.HEVC.DTS-HD.MA.TrueHD.7.1.Atmos-FGT
  48. Language                                 : English
  49. Default                                  : Yes
  50. Forced                                   : No
  51. Number of dynamic objects                : 11
  52. Bed channel count                        : 1 channel
  53. Bed channel configuration                : LFE
  54. Audio #2
  55. ID                                       : 3
  56. Format                                   : DTS XLL
  57. Format/Info                              : Digital Theater Systems
  58. Commercial name                          : DTS-HD Master Audio
  59. Codec ID                                 : A_DTS
  60. Duration                                 : 2 h 9 min
  61. Bit rate mode                            : Variable
  62. Bit rate                                 : 4 463 kb/s
  63. Channel(s)                               : 8 channels
  64. Channel layout                           : C L R LFE Lb Rb Lss Rss
  65. Sampling rate                            : 48.0 kHz
  66. Frame rate                               : 93.750 FPS (512 SPF)
  67. Bit depth                                : 24 bits
  68. Compression mode                         : Lossless
  69. Delay relative to video                  : -17 ms
  70. Stream size                              : 4.02 GiB (6%)
  71. Title                                    : Glass.2019.2160p.BluRay.REMUX.HEVC.DTS-HD.MA.TrueHD.7.1.Atmos-FGT
  72. Language                                 : English
  73. Default                                  : No
  74. Forced                                   : No
  75. Audio #3
  76. ID                                       : 4
  77. Format                                   : AC-3
  78. Format/Info                              : Audio Coding 3
  79. Commercial name                          : Dolby Digital
  80. Codec ID                                 : A_AC3
  81. Duration                                 : 2 h 9 min
  82. Bit rate mode                            : Constant
  83. Bit rate                                 : 448 kb/s
  84. Channel(s)                               : 6 channels
  85. Channel layout                           : L R C LFE Ls Rs
  86. Sampling rate                            : 48.0 kHz
  87. Frame rate                               : 31.250 FPS (1536 SPF)
  88. Bit depth                                : 16 bits
  89. Compression mode                         : Lossy
  90. Stream size                              : 413 MiB (1%)
  91. Title                                    : Glass.2019.2160p.BluRay.REMUX.HEVC.DTS-HD.MA.TrueHD.7.1.Atmos-FGT
  92. Language                                 : English
  93. Service kind                             : Complete Main
  94. Default                                  : No
  95. Forced                                   : No
  96. Audio #4
  97. ID                                       : 5
  98. Format                                   : AC-3
  99. Format/Info                              : Audio Coding 3
  100. Commercial name                          : Dolby Digital
  101. Codec ID                                 : A_AC3
  102. Duration                                 : 2 h 9 min
  103. Bit rate mode                            : Constant
  104. Bit rate                                 : 640 kb/s
  105. Channel(s)                               : 6 channels
  106. Channel layout                           : L R C LFE Ls Rs
  107. Sampling rate                            : 48.0 kHz
  108. Frame rate                               : 31.250 FPS (1536 SPF)
  109. Bit depth                                : 16 bits
  110. Compression mode                         : Lossy
  111. Delay relative to video                  : 15 ms
  112. Stream size                              : 591 MiB (1%)
  113. Title                                    : Glass.2019.2160p.BluRay.REMUX.HEVC.DTS-HD.MA.TrueHD.7.1.Atmos-FGT
  114. Language                                 : Spanish
  115. Service kind                             : Complete Main
  116. Default                                  : No
  117. Forced                                   : No
  118. Audio #5
  119. ID                                       : 6
  120. Format                                   : AC-3
  121. Format/Info                              : Audio Coding 3
  122. Commercial name                          : Dolby Digital
  123. Codec ID                                 : A_AC3
  124. Duration                                 : 2 h 9 min
  125. Bit rate mode                            : Constant
  126. Bit rate                                 : 640 kb/s
  127. Channel(s)                               : 6 channels
  128. Channel layout                           : L R C LFE Ls Rs
  129. Sampling rate                            : 48.0 kHz
  130. Frame rate                               : 31.250 FPS (1536 SPF)
  131. Bit depth                                : 16 bits
  132. Compression mode                         : Lossy
  133. Delay relative to video                  : 15 ms
  134. Stream size                              : 591 MiB (1%)
  135. Title                                    : Glass.2019.2160p.BluRay.REMUX.HEVC.DTS-HD.MA.TrueHD.7.1.Atmos-FGT
  136. Language                                 : French
  137. Service kind                             : Complete Main
  138. Default                                  : No
  139. Forced                                   : No
  140. Text #1
  141. ID                                       : 7
  142. Format                                   : UTF-8
  143. Codec ID                                 : S_TEXT/UTF8
  144. Codec ID/Info                            : UTF-8 Plain Text
  145. Duration                                 : 2 h 1 min
  146. Bit rate                                 : 43 b/s
  147. Count of elements                        : 1197
  148. Stream size                              : 38.9 KiB (0%)
  149. Title                                    : English-SRT
  150. Language                                 : English
  151. Default                                  : Yes
  152. Forced                                   : No
  153. Text #2
  154. ID                                       : 8
  155. Format                                   : UTF-8
  156. Codec ID                                 : S_TEXT/UTF8
  157. Codec ID/Info                            : UTF-8 Plain Text
  158. Duration                                 : 2 h 2 min
  159. Bit rate                                 : 50 b/s
  160. Count of elements                        : 1561
  161. Stream size                              : 45.7 KiB (0%)
  162. Title                                    : English-SDH-SRT
  163. Language                                 : English
  164. Default                                  : No
  165. Forced                                   : No
  166. Text #3
  167. ID                                       : 9
  168. Format                                   : PGS
  169. Muxing mode                              : zlib
  170. Codec ID                                 : S_HDMV/PGS
  171. Codec ID/Info                            : Picture based subtitle format used on BDs/HD-DVDs
  172. Duration                                 : 2 h 2 min
  173. Bit rate                                 : 36.1 kb/s
  174. Count of elements                        : 3130
  175. Stream size                              : 31.6 MiB (0%)
  176. Title                                    : English-PGS
  177. Language                                 : English
  178. Default                                  : No
  179. Forced                                   : No
  180. Text #4
  181. ID                                       : 10
  182. Format                                   : PGS
  183. Muxing mode                              : zlib
  184. Codec ID                                 : S_HDMV/PGS
  185. Codec ID/Info                            : Picture based subtitle format used on BDs/HD-DVDs
  186. Duration                                 : 2 h 8 min
  187. Bit rate                                 : 26.9 kb/s
  188. Count of elements                        : 2450
  189. Stream size                              : 24.7 MiB (0%)
  190. Title                                    : Spanish-PGS
  191. Language                                 : Spanish
  192. Default                                  : No
  193. Forced                                   : No
  194. Text #5
  195. ID                                       : 11
  196. Format                                   : PGS
  197. Muxing mode                              : zlib
  198. Codec ID                                 : S_HDMV/PGS
  199. Codec ID/Info                            : Picture based subtitle format used on BDs/HD-DVDs
  200. Duration                                 : 2 h 8 min
  201. Bit rate                                 : 26.8 kb/s
  202. Count of elements                        : 2457
  203. Stream size                              : 24.6 MiB (0%)
  204. Title                                    : French-PGS
  205. Language                                 : French
  206. Default                                  : No
  207. Forced                                   : No
  208. Text #6
  209. ID                                       : 12
  210. Format                                   : PGS
  211. Muxing mode                              : zlib
  212. Codec ID                                 : S_HDMV/PGS
  213. Codec ID/Info                            : Picture based subtitle format used on BDs/HD-DVDs
  214. Duration                                 : 2 h 4 min
  215. Bit rate                                 : 1 620 b/s
  216. Count of elements                        : 124
  217. Stream size                              : 1.45 MiB (0%)
  218. Title                                    : Spanish-FORCED-PGS
  219. Language                                 : Spanish
  220. Default                                  : No
  221. Forced                                   : No
  222. Text #7
  223. ID                                       : 13
  224. Format                                   : PGS
  225. Muxing mode                              : zlib
  226. Codec ID                                 : S_HDMV/PGS
  227. Codec ID/Info                            : Picture based subtitle format used on BDs/HD-DVDs
  228. Duration                                 : 2 h 4 min
  229. Bit rate                                 : 1 153 b/s
  230. Count of elements                        : 99
  231. Stream size                              : 1.03 MiB (0%)
  232. Title                                    : French-FORCED-PGS
  233. Language                                 : French
  234. Default                                  : No
  235. Forced                                   : No
  236. Menu
  237. 00:00:00.000                             : :Chapter 1
  238. 00:04:08.456                             : :Chapter 2
  239. 00:09:36.367                             : :Chapter 3
  240. 00:14:30.077                             : :Chapter 4
  241. 00:19:49.897                             : :Chapter 5
  242. 00:24:41.062                             : :Chapter 6
  243. 00:29:45.825                             : :Chapter 7
  244. 00:35:00.598                             : :Chapter 8
  245. 00:39:07.595                             : :Chapter 9
  246. 00:47:28.220                             : :Chapter 10
  247. 00:57:16.224                             : :Chapter 11
  248. 01:02:55.271                             : :Chapter 12
  249. 01:09:26.829                             : :Chapter 13
  250. 01:14:30.299                             : :Chapter 14
  251. 01:21:43.773                             : :Chapter 15
  252. 01:30:10.530                             : :Chapter 16
  253. 01:38:15.514                             : :Chapter 17
  254. 01:44:08.742                             : :Chapter 18
  255. 01:54:07.215                             : :Chapter 19
  256. 02:03:00.289                             : :Chapter 20
复制代码






                                       
                                       

                                       
                                       
                                       




回复

使用道具 举报

懒得打字嘛,点击右侧快捷回复 【右侧内容,后台自定义】
您需要登录后才可以回帖 登录 | 立即加入

本版积分规则

Archiver|小黑屋| 蓝光电影网 |网站地图

Copyright © 2021 Comsenz Inc. Powered by 蓝光电影网

蓝光电影网

本站内容由用户自主分享和转载自互联网,转载目的在于传递更多信息,并不代表本网赞同其观点和对其真实性负责。

如有侵权、违反国家法律政策行为,请联系我们,我们会第一时间及时清除和处理!

举报反馈邮箱:[email protected]

快速回复 返回顶部 返回列表