找回密码

蓝光电影网

查看: 4|回复: 0

[UHD.HEVC] 美国队长2 Captain.America.The.Winter.Soldier.2014.2160p.BluRay.REMUX.HEVC.DTS-HD.MA.TrueHD.7.1.Atmos-FGT 56.96GB

[复制链接]
蓝光币
382
发表于 2019-5-22 19:32:31 | 显示全部楼层 |阅读模式




◎译  名 美国队长2 / Captain America 2 / 美国队长2:冬季战士 / 美国队长2:隆冬战士 / 美国队长2:冰冷战士(台) / 美国队长:冬兵 / 美队2
◎片  名 Captain America: The Winter Soldier
◎年  代 2014
◎产  地 美国
◎类  别 行动 / 科幻 / 冒险
◎语  言 英语 / 法语
◎上映日期 2014-03-13(加州首映) / 2014-04-04(美国/中国大陆)
◎IMDb评分  7.8/10 from 662329 users
◎IMDb链接  http://www.imdb.com/title/tt1843866
◎豆瓣评分 8.0/10 from 327236 users
◎豆瓣链接 https://movie.douban.com/subject/6390823/
◎片  长 136分钟
◎导  演 安东尼·卢素 Anthony Russo / 乔·卢素 Joe Russo
◎编  剧 克里斯托弗·马库斯 Christopher Markus / 斯蒂芬·麦克菲利 Stephen McFeely
◎主  演 克里斯·埃文斯 Chris Evans
      斯嘉丽·约翰逊 Scarlett Johansson
      塞巴斯蒂安·斯坦 Sebastian Stan
      安东尼·麦凯 Anthony Mackie
      海莉·阿特维尔 Hayley Atwell
      艾米丽·万凯普 Emily VanCamp
      罗伯特·雷德福 Robert Redford
      塞缪尔·杰克逊 Samuel L. Jackson
      寇碧·史莫德斯 Cobie Smulders
      卡兰·马尔韦 Callan Mulvey
      弗兰克·格里罗 Frank Grillo
      斯坦·李 Stan Lee
      托比·琼斯 Toby Jones
      珍妮·艾加特 Jenny Agutter
      乔治·圣皮埃尔 Georges St. Pierre
      盖瑞·山德林 Garry Shandling
      阿兰·戴尔 Alan Dale
      黄经汉 Chin Han
      阿德托库姆布斯·麦克马克 Adetokumboh M'Cormack
      Dominic Rains

◎标  签 美国 | 科幻 | 美国队长 | Marvel | 超级豪杰 | 行动 | 2014 | 漫画改编
◎简  介  
  渐渐习惯了现代生活的美国队长史蒂夫·罗杰斯(克里斯·埃文斯 Chris Evans 饰),在一次行动后隐约嗅到神盾局内部所满盈出来的凶恶气味。而当得知神盾局正奥秘停止的“洞察计划”后,他更加此感应愤慨。某天,神盾局批示官尼克-法瑞(塞缪尔·杰克逊 Samuel L. Jackson 饰)遭到一群武装份子攻击,他拼尽尽力将一支U盘交到美国队长手中,这里面藏着该局二战以来最重要且最可怕的奥秘。在此以后,美国队长因涉嫌杀戮尼克而遭到前局长亚历山大·皮尔斯(罗伯特·雷德福/Robert Redford 饰)的通缉和追杀,流亡中他获得黑孀妇(斯嘉丽·约翰逊 Scarlett Johansson 饰)和退伍老兵“猎鹰”(安东尼·麦凯 Anthony Mackie 饰)的帮助。
他们必须争分夺秒解开神盾局的奥秘,阻止“洞察计划”的实施……
◎获奖情况  
  第87届奥斯卡金像奖(2015)
  最好视觉结果(提名) 布莱恩·吉尔 / 拉塞尔·厄尔 / 丹·德里伍 / 丹尼尔·萨迪克
  第13届华盛顿影评人协会奖(2014)
  华盛顿特区最好写照
  第16届美国青少年挑选奖(2014)
  最好科幻/奇异电影(提名)
  最好科幻/奇异电影男演员(提名) 克里斯·埃文斯
  最好科幻/奇异电影女演员(提名) 斯嘉丽·约翰逊
  最抢戏电影演员(提名) 安东尼·麦凯
  最好银幕拍档(提名) 安东尼·麦凯 / 克里斯·埃文斯
  最好电影吻戏(提名) 克里斯·埃文斯 / 斯嘉丽·约翰逊
  第1届豆瓣电影年度榜单(2014)
  最受关注的院线电影(提名)
  4月最受关注电影

  1. Video
  2. ID                                       : 1
  3. Format                                   : HEVC
  4. Format/Info                              : High Efficiency Video Coding
  5. Commercial name                          : HDR10
  6. Format profile                           : Main [email protected]@High
  7. Codec ID                                 : V_MPEGH/ISO/HEVC
  8. Duration                                 : 2 h 15 min
  9. Bit rate                                 : 44.9 Mb/s
  10. Width                                    : 3 840 pixels
  11. Height                                   : 2 160 pixels
  12. Display aspect ratio                     : 16:9
  13. Frame rate mode                          : Constant
  14. Frame rate                               : 23.976 (24000/1001) FPS
  15. Color space                              : YUV
  16. Chroma subsampling                       : 4:2:0 (Type 2)
  17. Bit depth                                : 10 bits
  18. Bits/(Pixel*Frame)                       : 0.226
  19. Stream size                              : 42.6 GiB (75%)
  20. Title                                    : Captain.America.The.Winter.Soldier.2014.2160p.BluRay.REMUX.HEVC.DTS-HD.MA.TrueHD.7.1.Atmos-FGT
  21. Language                                 : English
  22. Default                                  : No
  23. Forced                                   : No
  24. Color range                              : Limited
  25. Color primaries                          : BT.2020
  26. Transfer characteristics                 : PQ
  27. Matrix coefficients                      : BT.2020 non-constant
  28. Mastering display color primaries        : Display P3
  29. Mastering display luminance              : min: 0.0020 cd/m2, max: 1000 cd/m2
  30. Maximum Content Light Level              : 793 cd/m2
  31. Maximum Frame-Average Light Level        : 679 cd/m2
  32. Audio #1
  33. ID                                       : 2
  34. Format                                   : MLP FBA 16-ch
  35. Format/Info                              : Meridian Lossless Packing FBA with 16-channel presentation
  36. Commercial name                          : Dolby TrueHD with Dolby Atmos
  37. Codec ID                                 : A_TRUEHD
  38. Duration                                 : 2 h 15 min
  39. Bit rate mode                            : Variable
  40. Bit rate                                 : 4 137 kb/s
  41. Maximum bit rate                         : 7 701 kb/s
  42. Channel(s)                               : 8 channels
  43. Channel layout                           : L R C LFE Ls Rs Lb Rb
  44. Sampling rate                            : 48.0 kHz
  45. Frame rate                               : 1 200.000 FPS (40 SPF)
  46. Compression mode                         : Lossless
  47. Stream size                              : 3.93 GiB (7%)
  48. Title                                    : Captain.America.The.Winter.Soldier.2014.2160p.BluRay.REMUX.HEVC.DTS-HD.MA.TrueHD.7.1.Atmos-FGT
  49. Language                                 : English
  50. Default                                  : Yes
  51. Forced                                   : No
  52. Number of dynamic objects                : 13
  53. Bed channel count                        : 1 channel
  54. Bed channel configuration                : LFE
  55. Audio #2
  56. ID                                       : 3
  57. Format                                   : DTS XLL
  58. Format/Info                              : Digital Theater Systems
  59. Commercial name                          : DTS-HD Master Audio
  60. Codec ID                                 : A_DTS
  61. Duration                                 : 2 h 15 min
  62. Bit rate mode                            : Variable
  63. Bit rate                                 : 4 086 kb/s
  64. Channel(s)                               : 8 channels
  65. Channel layout                           : C L R LFE Lb Rb Lss Rss
  66. Sampling rate                            : 48.0 kHz
  67. Frame rate                               : 93.750 FPS (512 SPF)
  68. Bit depth                                : 24 bits
  69. Compression mode                         : Lossless
  70. Stream size                              : 3.88 GiB (7%)
  71. Title                                    : Captain.America.The.Winter.Soldier.2014.2160p.BluRay.REMUX.HEVC.DTS-HD.MA.TrueHD.7.1.Atmos-FGT
  72. Language                                 : English
  73. Default                                  : No
  74. Forced                                   : No
  75. Audio #3
  76. ID                                       : 4
  77. Format                                   : AC-3
  78. Format/Info                              : Audio Coding 3
  79. Commercial name                          : Dolby Digital
  80. Codec ID                                 : A_AC3
  81. Duration                                 : 2 h 15 min
  82. Bit rate mode                            : Constant
  83. Bit rate                                 : 640 kb/s
  84. Channel(s)                               : 6 channels
  85. Channel layout                           : L R C LFE Ls Rs
  86. Sampling rate                            : 48.0 kHz
  87. Frame rate                               : 31.250 FPS (1536 SPF)
  88. Bit depth                                : 16 bits
  89. Compression mode                         : Lossy
  90. Stream size                              : 622 MiB (1%)
  91. Title                                    : Captain.America.The.Winter.Soldier.2014.2160p.BluRay.REMUX.HEVC.DTS-HD.MA.TrueHD.7.1.Atmos-FGT
  92. Language                                 : English
  93. Service kind                             : Complete Main
  94. Default                                  : No
  95. Forced                                   : No
  96. Audio #4
  97. ID                                       : 5
  98. Format                                   : AC-3
  99. Format/Info                              : Audio Coding 3
  100. Commercial name                          : Dolby Digital
  101. Codec ID                                 : A_AC3
  102. Duration                                 : 2 h 15 min
  103. Bit rate mode                            : Constant
  104. Bit rate                                 : 320 kb/s
  105. Channel(s)                               : 2 channels
  106. Channel layout                           : L R
  107. Sampling rate                            : 48.0 kHz
  108. Frame rate                               : 31.250 FPS (1536 SPF)
  109. Bit depth                                : 16 bits
  110. Compression mode                         : Lossy
  111. Stream size                              : 311 MiB (1%)
  112. Title                                    : Captain.America.The.Winter.Soldier.2014.2160p.BluRay.REMUX.HEVC.DTS-HD.MA.TrueHD.7.1.Atmos-FGT
  113. Language                                 : English
  114. Service kind                             : Complete Main
  115. Default                                  : No
  116. Forced                                   : No
  117. Audio #5
  118. ID                                       : 6
  119. Format                                   : AC-3
  120. Format/Info                              : Audio Coding 3
  121. Commercial name                          : Dolby Digital
  122. Codec ID                                 : A_AC3
  123. Duration                                 : 2 h 15 min
  124. Bit rate mode                            : Constant
  125. Bit rate                                 : 640 kb/s
  126. Channel(s)                               : 6 channels
  127. Channel layout                           : L R C LFE Ls Rs
  128. Sampling rate                            : 48.0 kHz
  129. Frame rate                               : 31.250 FPS (1536 SPF)
  130. Bit depth                                : 16 bits
  131. Compression mode                         : Lossy
  132. Stream size                              : 622 MiB (1%)
  133. Title                                    : Captain.America.The.Winter.Soldier.2014.2160p.BluRay.REMUX.HEVC.DTS-HD.MA.TrueHD.7.1.Atmos-FGT
  134. Language                                 : French
  135. Service kind                             : Complete Main
  136. Default                                  : No
  137. Forced                                   : No
  138. Audio #6
  139. ID                                       : 7
  140. Format                                   : E-AC-3
  141. Format/Info                              : Enhanced AC-3
  142. Commercial name                          : Dolby Digital Plus
  143. Format profile                           : Blu-ray Disc
  144. Codec ID                                 : A_EAC3
  145. Duration                                 : 2 h 15 min
  146. Bit rate mode                            : Constant
  147. Bit rate                                 : 1 024 kb/s
  148. Channel(s)                               : 8 channels
  149. Channel layout                           : L R C LFE Ls Rs Lb Rb
  150. Sampling rate                            : 48.0 kHz
  151. Frame rate                               : 31.250 FPS (1536 SPF)
  152. Compression mode                         : Lossy
  153. Stream size                              : 995 MiB (2%)
  154. Title                                    : Captain.America.The.Winter.Soldier.2014.2160p.BluRay.REMUX.HEVC.DTS-HD.MA.TrueHD.7.1.Atmos-FGT
  155. Language                                 : French
  156. Service kind                             : Complete Main
  157. Default                                  : No
  158. Forced                                   : No
  159. Audio #7
  160. ID                                       : 8
  161. Format                                   : E-AC-3
  162. Format/Info                              : Enhanced AC-3
  163. Commercial name                          : Dolby Digital Plus
  164. Format profile                           : Blu-ray Disc
  165. Codec ID                                 : A_EAC3
  166. Duration                                 : 2 h 15 min
  167. Bit rate mode                            : Constant
  168. Bit rate                                 : 1 024 kb/s
  169. Channel(s)                               : 8 channels
  170. Channel layout                           : L R C LFE Ls Rs Lb Rb
  171. Sampling rate                            : 48.0 kHz
  172. Frame rate                               : 31.250 FPS (1536 SPF)
  173. Compression mode                         : Lossy
  174. Stream size                              : 995 MiB (2%)
  175. Title                                    : Captain.America.The.Winter.Soldier.2014.2160p.BluRay.REMUX.HEVC.DTS-HD.MA.TrueHD.7.1.Atmos-FGT
  176. Language                                 : Spanish
  177. Service kind                             : Complete Main
  178. Default                                  : No
  179. Forced                                   : No
  180. Audio #8
  181. ID                                       : 9
  182. Format                                   : E-AC-3
  183. Format/Info                              : Enhanced AC-3
  184. Commercial name                          : Dolby Digital Plus
  185. Format profile                           : Blu-ray Disc
  186. Codec ID                                 : A_EAC3
  187. Duration                                 : 2 h 15 min
  188. Bit rate mode                            : Constant
  189. Bit rate                                 : 1 024 kb/s
  190. Channel(s)                               : 8 channels
  191. Channel layout                           : L R C LFE Ls Rs Lb Rb
  192. Sampling rate                            : 48.0 kHz
  193. Frame rate                               : 31.250 FPS (1536 SPF)
  194. Compression mode                         : Lossy
  195. Stream size                              : 995 MiB (2%)
  196. Title                                    : Captain.America.The.Winter.Soldier.2014.2160p.BluRay.REMUX.HEVC.DTS-HD.MA.TrueHD.7.1.Atmos-FGT
  197. Language                                 : German
  198. Service kind                             : Complete Main
  199. Default                                  : No
  200. Forced                                   : No
  201. Audio #9
  202. ID                                       : 10
  203. Format                                   : E-AC-3
  204. Format/Info                              : Enhanced AC-3
  205. Commercial name                          : Dolby Digital Plus
  206. Format profile                           : Blu-ray Disc
  207. Codec ID                                 : A_EAC3
  208. Duration                                 : 2 h 15 min
  209. Bit rate mode                            : Constant
  210. Bit rate                                 : 1 024 kb/s
  211. Channel(s)                               : 8 channels
  212. Channel layout                           : L R C LFE Ls Rs Lb Rb
  213. Sampling rate                            : 48.0 kHz
  214. Frame rate                               : 31.250 FPS (1536 SPF)
  215. Compression mode                         : Lossy
  216. Stream size                              : 995 MiB (2%)
  217. Title                                    : Captain.America.The.Winter.Soldier.2014.2160p.BluRay.REMUX.HEVC.DTS-HD.MA.TrueHD.7.1.Atmos-FGT
  218. Language                                 : Italian
  219. Service kind                             : Complete Main
  220. Default                                  : No
  221. Forced                                   : No
  222. Audio #10
  223. ID                                       : 11
  224. Format                                   : E-AC-3
  225. Format/Info                              : Enhanced AC-3
  226. Commercial name                          : Dolby Digital Plus
  227. Format profile                           : Blu-ray Disc
  228. Codec ID                                 : A_EAC3
  229. Duration                                 : 2 h 15 min
  230. Bit rate mode                            : Constant
  231. Bit rate                                 : 1 024 kb/s
  232. Channel(s)                               : 8 channels
  233. Channel layout                           : L R C LFE Ls Rs Lb Rb
  234. Sampling rate                            : 48.0 kHz
  235. Frame rate                               : 31.250 FPS (1536 SPF)
  236. Compression mode                         : Lossy
  237. Stream size                              : 995 MiB (2%)
  238. Title                                    : Captain.America.The.Winter.Soldier.2014.2160p.BluRay.REMUX.HEVC.DTS-HD.MA.TrueHD.7.1.Atmos-FGT
  239. Language                                 : Japanese
  240. Service kind                             : Complete Main
  241. Default                                  : No
  242. Forced                                   : No
  243. Text #1
  244. ID                                       : 12
  245. Format                                   : UTF-8
  246. Codec ID                                 : S_TEXT/UTF8
  247. Codec ID/Info                            : UTF-8 Plain Text
  248. Duration                                 : 2 h 8 min
  249. Bit rate                                 : 49 b/s
  250. Count of elements                        : 1501
  251. Stream size                              : 46.5 KiB (0%)
  252. Title                                    : English-SRT
  253. Language                                 : English
  254. Default                                  : Yes
  255. Forced                                   : No
  256. Text #2
  257. ID                                       : 13
  258. Format                                   : UTF-8
  259. Codec ID                                 : S_TEXT/UTF8
  260. Codec ID/Info                            : UTF-8 Plain Text
  261. Duration                                 : 2 h 8 min
  262. Bit rate                                 : 51 b/s
  263. Count of elements                        : 1647
  264. Stream size                              : 49.0 KiB (0%)
  265. Title                                    : English-SDH-SRT
  266. Language                                 : English
  267. Default                                  : No
  268. Forced                                   : No
  269. Text #3
  270. ID                                       : 14
  271. Format                                   : UTF-8
  272. Codec ID                                 : S_TEXT/UTF8
  273. Codec ID/Info                            : UTF-8 Plain Text
  274. Duration                                 : 1 h 12 min
  275. Bit rate                                 : 1 b/s
  276. Count of elements                        : 27
  277. Stream size                              : 674 Bytes (0%)
  278. Title                                    : English-FORCED-SRT
  279. Language                                 : English
  280. Default                                  : No
  281. Forced                                   : No
  282. Text #4
  283. ID                                       : 15
  284. Format                                   : PGS
  285. Muxing mode                              : zlib
  286. Codec ID                                 : S_HDMV/PGS
  287. Codec ID/Info                            : Picture based subtitle format used on BDs/HD-DVDs
  288. Duration                                 : 2 h 8 min
  289. Bit rate                                 : 34.4 kb/s
  290. Count of elements                        : 3300
  291. Stream size                              : 31.7 MiB (0%)
  292. Title                                    : English-PGS
  293. Language                                 : English
  294. Default                                  : No
  295. Forced                                   : No
  296. Text #5
  297. ID                                       : 16
  298. Format                                   : PGS
  299. Muxing mode                              : zlib
  300. Codec ID                                 : S_HDMV/PGS
  301. Codec ID/Info                            : Picture based subtitle format used on BDs/HD-DVDs
  302. Duration                                 : 2 h 14 min
  303. Bit rate                                 : 30.6 kb/s
  304. Count of elements                        : 2994
  305. Stream size                              : 29.5 MiB (0%)
  306. Title                                    : French-PGS
  307. Language                                 : French
  308. Default                                  : No
  309. Forced                                   : No
  310. Text #6
  311. ID                                       : 17
  312. Format                                   : PGS
  313. Muxing mode                              : zlib
  314. Codec ID                                 : S_HDMV/PGS
  315. Codec ID/Info                            : Picture based subtitle format used on BDs/HD-DVDs
  316. Duration                                 : 2 h 14 min
  317. Bit rate                                 : 24.2 kb/s
  318. Count of elements                        : 2934
  319. Stream size                              : 23.3 MiB (0%)
  320. Title                                    : French-PGS
  321. Language                                 : French
  322. Default                                  : No
  323. Forced                                   : No
  324. Text #7
  325. ID                                       : 18
  326. Format                                   : PGS
  327. Muxing mode                              : zlib
  328. Codec ID                                 : S_HDMV/PGS
  329. Codec ID/Info                            : Picture based subtitle format used on BDs/HD-DVDs
  330. Duration                                 : 2 h 14 min
  331. Bit rate                                 : 31.5 kb/s
  332. Count of elements                        : 3096
  333. Stream size                              : 30.4 MiB (0%)
  334. Title                                    : Spanish-PGS
  335. Language                                 : Spanish
  336. Default                                  : No
  337. Forced                                   : No
  338. Text #8
  339. ID                                       : 19
  340. Format                                   : PGS
  341. Muxing mode                              : zlib
  342. Codec ID                                 : S_HDMV/PGS
  343. Codec ID/Info                            : Picture based subtitle format used on BDs/HD-DVDs
  344. Duration                                 : 2 h 8 min
  345. Bit rate                                 : 27.2 kb/s
  346. Count of elements                        : 2902
  347. Stream size                              : 25.1 MiB (0%)
  348. Title                                    : German-PGS
  349. Language                                 : German
  350. Default                                  : No
  351. Forced                                   : No
  352. Text #9
  353. ID                                       : 20
  354. Format                                   : PGS
  355. Muxing mode                              : zlib
  356. Codec ID                                 : S_HDMV/PGS
  357. Codec ID/Info                            : Picture based subtitle format used on BDs/HD-DVDs
  358. Duration                                 : 2 h 14 min
  359. Bit rate                                 : 35.9 kb/s
  360. Count of elements                        : 3076
  361. Stream size                              : 34.7 MiB (0%)
  362. Title                                    : Italian-PGS
  363. Language                                 : Italian
  364. Default                                  : No
  365. Forced                                   : No
  366. Text #10
  367. ID                                       : 21
  368. Format                                   : PGS
  369. Muxing mode                              : zlib
  370. Codec ID                                 : S_HDMV/PGS
  371. Codec ID/Info                            : Picture based subtitle format used on BDs/HD-DVDs
  372. Duration                                 : 2 h 14 min
  373. Bit rate                                 : 18.9 kb/s
  374. Count of elements                        : 2668
  375. Stream size                              : 18.2 MiB (0%)
  376. Title                                    : Japanese-PGS
  377. Language                                 : Japanese
  378. Default                                  : No
  379. Forced                                   : No
  380. Text #11
  381. ID                                       : 22
  382. Format                                   : PGS
  383. Muxing mode                              : zlib
  384. Codec ID                                 : S_HDMV/PGS
  385. Codec ID/Info                            : Picture based subtitle format used on BDs/HD-DVDs
  386. Duration                                 : 2 h 14 min
  387. Bit rate                                 : 28.7 kb/s
  388. Count of elements                        : 3072
  389. Stream size                              : 27.7 MiB (0%)
  390. Title                                    : Norwegian-PGS
  391. Language                                 : Norwegian
  392. Default                                  : No
  393. Forced                                   : No
  394. Text #12
  395. ID                                       : 23
  396. Format                                   : PGS
  397. Muxing mode                              : zlib
  398. Codec ID                                 : S_HDMV/PGS
  399. Codec ID/Info                            : Picture based subtitle format used on BDs/HD-DVDs
  400. Duration                                 : 2 h 14 min
  401. Bit rate                                 : 23.8 kb/s
  402. Count of elements                        : 1950
  403. Stream size                              : 23.0 MiB (0%)
  404. Title                                    : Swedish-PGS
  405. Language                                 : Swedish
  406. Default                                  : No
  407. Forced                                   : No
  408. Text #13
  409. ID                                       : 24
  410. Format                                   : PGS
  411. Muxing mode                              : zlib
  412. Codec ID                                 : S_HDMV/PGS
  413. Codec ID/Info                            : Picture based subtitle format used on BDs/HD-DVDs
  414. Duration                                 : 1 h 12 min
  415. Bit rate                                 : 628 b/s
  416. Count of elements                        : 56
  417. Stream size                              : 333 KiB (0%)
  418. Title                                    : English-FORCED-PGS
  419. Language                                 : English
  420. Default                                  : No
  421. Forced                                   : No
  422. Text #14
  423. ID                                       : 25
  424. Format                                   : PGS
  425. Muxing mode                              : zlib
  426. Codec ID                                 : S_HDMV/PGS
  427. Codec ID/Info                            : Picture based subtitle format used on BDs/HD-DVDs
  428. Duration                                 : 2 h 12 min
  429. Bit rate                                 : 381 b/s
  430. Count of elements                        : 32
  431. Stream size                              : 369 KiB (0%)
  432. Title                                    : French-FORCED-PGS
  433. Language                                 : French
  434. Default                                  : No
  435. Forced                                   : No
  436. Text #15
  437. ID                                       : 26
  438. Format                                   : PGS
  439. Muxing mode                              : zlib
  440. Codec ID                                 : S_HDMV/PGS
  441. Codec ID/Info                            : Picture based subtitle format used on BDs/HD-DVDs
  442. Duration                                 : 2 h 12 min
  443. Bit rate                                 : 180 b/s
  444. Count of elements                        : 18
  445. Stream size                              : 175 KiB (0%)
  446. Title                                    : French-FORCED-PGS
  447. Language                                 : French
  448. Default                                  : No
  449. Forced                                   : No
  450. Text #16
  451. ID                                       : 27
  452. Format                                   : PGS
  453. Muxing mode                              : zlib
  454. Codec ID                                 : S_HDMV/PGS
  455. Codec ID/Info                            : Picture based subtitle format used on BDs/HD-DVDs
  456. Duration                                 : 2 h 12 min
  457. Bit rate                                 : 623 b/s
  458. Count of elements                        : 76
  459. Stream size                              : 605 KiB (0%)
  460. Title                                    : Spanish-FORCED-PGS
  461. Language                                 : Spanish
  462. Default                                  : No
  463. Forced                                   : No
  464. Text #17
  465. ID                                       : 28
  466. Format                                   : PGS
  467. Muxing mode                              : zlib
  468. Codec ID                                 : S_HDMV/PGS
  469. Codec ID/Info                            : Picture based subtitle format used on BDs/HD-DVDs
  470. Duration                                 : 1 h 12 min
  471. Bit rate                                 : 675 b/s
  472. Count of elements                        : 62
  473. Stream size                              : 358 KiB (0%)
  474. Title                                    : German-FORCED-PGS
  475. Language                                 : German
  476. Default                                  : No
  477. Forced                                   : No
  478. Text #18
  479. ID                                       : 29
  480. Format                                   : PGS
  481. Muxing mode                              : zlib
  482. Codec ID                                 : S_HDMV/PGS
  483. Codec ID/Info                            : Picture based subtitle format used on BDs/HD-DVDs
  484. Duration                                 : 2 h 12 min
  485. Bit rate                                 : 546 b/s
  486. Count of elements                        : 72
  487. Stream size                              : 529 KiB (0%)
  488. Title                                    : Italian-FORCED-PGS
  489. Language                                 : Italian
  490. Default                                  : No
  491. Forced                                   : No
  492. Text #19
  493. ID                                       : 30
  494. Format                                   : PGS
  495. Muxing mode                              : zlib
  496. Codec ID                                 : S_HDMV/PGS
  497. Codec ID/Info                            : Picture based subtitle format used on BDs/HD-DVDs
  498. Duration                                 : 2 h 12 min
  499. Bit rate                                 : 509 b/s
  500. Count of elements                        : 68
  501. Stream size                              : 493 KiB (0%)
  502. Title                                    : Japanese-FORCED-PGS
  503. Language                                 : Japanese
  504. Default                                  : No
  505. Forced                                   : No
  506. Menu
  507. 00:00:00.000                             : en:Chapter 01
  508. 00:03:28.666                             : en:Chapter 02
  509. 00:13:31.727                             : en:Chapter 03
  510. 00:17:57.826                             : en:Chapter 04
  511. 00:22:25.260                             : en:Chapter 05
  512. 00:33:20.415                             : en:Chapter 06
  513. 00:41:27.276                             : en:Chapter 07
  514. 00:51:37.094                             : en:Chapter 08
  515. 00:58:23.958                             : en:Chapter 09
  516. 01:07:40.347                             : en:Chapter 10
  517. 01:16:21.994                             : en:Chapter 11
  518. 01:24:42.744                             : en:Chapter 12
  519. 01:32:17.698                             : en:Chapter 13
  520. 01:37:06.237                             : en:Chapter 14
  521. 01:49:12.963                             : en:Chapter 15
  522. 01:55:03.563                             : en:Chapter 16
  523. 02:01:11.347                             : en:Chapter 17
  524. 02:06:21.991                             : en:Chapter 18
复制代码






                                       
                                       

                                       
                                       
                                       




美国队长2 Captain.America.The.Winter.Soldier.2014.2160p.BluRay.REMUX.HEVC.DTS-HD.MA.TrueHD.7.1.Atmos-FGT 56.96GB

Captain.America.The.Winter.Soldier.2014.2160p.BluRay.REMUX.HEVC.DTS-HD.MA.TrueHD.torrent

143.03 KB, 下载次数: 0, 下载积分: 蓝光币 -2

回复

使用道具 举报

懒得打字嘛,点击右侧快捷回复 【右侧内容,后台自定义】
您需要登录后才可以回帖 登录 | 立即加入

本版积分规则

Archiver|小黑屋| 蓝光电影网 |网站地图

Copyright © 2021 Comsenz Inc. Powered by 蓝光电影网

蓝光电影网

本站内容由用户自主分享和转载自互联网,转载目的在于传递更多信息,并不代表本网赞同其观点和对其真实性负责。

如有侵权、违反国家法律政策行为,请联系我们,我们会第一时间及时清除和处理!

举报反馈邮箱:[email protected]

快速回复 返回顶部 返回列表