找回密码

蓝光电影网

查看: 8|回复: 0

[2160p] 徒手攀岩 Free.Solo.2018.2160p.UHD.BluRay.X265.10bit.HDR.DTS-HD.MA.5.1-GUACAMOLE 6.51GB

[复制链接]
蓝光币
382
发表于 2019-7-28 12:46:34 | 显示全部楼层 |阅读模式


◎译  名 徒手攀岩 / National Geographic: Free Solo / 赤手登峰(港)
◎片  名 Free Solo
◎年  代 2018
◎产  地 美国
◎类  别 记载片
◎语  言 英语
◎上映日期 2018-09-28(美国) / 2019(中国大陆)
◎IMDb评分  8.2/10 from 34820 users
◎IMDb链接  http://www.imdb.com/title/tt7775622
◎豆瓣评分 9.0/10 from 39226 users
◎豆瓣链接 https://movie.douban.com/subject/30167509/
◎片  长 100分钟
◎导  演 金国威 Jimmy Chin / 伊丽莎白·柴·瓦沙瑞莉 Elizabeth Chai Vasarhelyi
◎主  演 亚历克斯·霍诺尔德 Alex Honnold
      金国威 Jimmy Chin
      Dierdre Wolownick
      Tommy Caldwell
      Sanni McCandless

◎标  签 记载片 | 极限活动 | 攀岩 | 美国 | 户外 | 探险 | 徒手 | 2018
◎简  介  
  亚历克斯·霍诺德从2009年就胡想着徒手攀缘酋长岩,尔后尝试了1000屡次,而徒手攀缘酋长岩是自己的 “终纵方针”。为此,他预备了一年半的时候,借助绳索攀爬过近60次酋长岩。他暗示,自己这样做并非为了停止预演,而是频频尝试分歧的岩点,研讨霸占最难的地区。记载片拍下了约塞米蒂国家公园及酋长岩的绚丽风景及霍诺德登顶的历史时辰。除此之外,片中还回首了他怎样处置极限方针带来的生命风险,以及他若何追求出色完善,从而在无绳索庇护的情况下保证满有把握。
◎获奖情况  
  第91届奥斯卡金像奖(2019)
  最好记载长片 埃文·海耶斯 / 香农·迪尔 / 伊丽莎白·柴·瓦沙瑞莉 / 金国威
  第72届英国电影学院奖(2019)
  电影奖 最好记载片
  第43届多伦多国际电影节(2018)
  观众挑选奖 记载片单元
  第71届美国导演工会奖(2019)
  最好记载片导演(提名) 伊丽莎白·柴·瓦沙瑞莉 / 金国威
  第30届美国制片野生会奖(2019)
  最好记载片制片人奖(提名)
  第69届美国剪辑工会奖(2019)
  记载片最好剪辑 Bob Eisenhardt
  第66届美国音效剪辑协会奖(2019)
  金卷轴奖 最好记载片音效剪辑
  第55届美国声音结果协会奖(2019)
  记载片最好音效
  第90届美国国家批评协会奖(2018)
  五佳记载片
  第23届金卫星奖(2019)
  电影部分 最好记载片(提名)
  第17届华盛顿影评人协会奖(2018)
  最好记载片(提名)
  第31届芝加哥影评人协会奖(2018)
  最好记载片(提名)
  第17届旧金山影评人协会奖(2018)
  最好记载片(提名)
  第18届温哥华影评人协会奖(2019)
  最好记载片(提名)
  第52届堪萨斯影评人协会奖(2018)
  最好记载片(提名)
  第22届美国在线影评人协会奖(2019)
  最好记载片(提名)

  1. Video
  2. ID                                       : 1
  3. Format                                   : HEVC
  4. Format/Info                              : High Efficiency Video Coding
  5. Format profile                           : Main [email protected]@High
  6. HDR format                               : SMPTE ST 2086, HDR10 compatible
  7. Codec ID                                 : V_MPEGH/ISO/HEVC
  8. Duration                                 : 1 h 40 min
  9. Bit rate                                 : 7 374 kb/s
  10. Width                                    : 3 840 pixels
  11. Height                                   : 2 080 pixels
  12. Display aspect ratio                     : 1.85:1
  13. Frame rate mode                          : Constant
  14. Frame rate                               : 23.976 (24000/1001) FPS
  15. Color space                              : YUV
  16. Chroma subsampling                       : 4:2:0 (Type 2)
  17. Bit depth                                : 10 bits
  18. Bits/(Pixel*Frame)                       : 0.039
  19. Stream size                              : 5.16 GiB (80%)
  20. Writing library                          : x265 3.1b36c03e4e771:[Windows][GCC 6.3.0][64 bit] 10bit
  21. Encoding settings                        : cpuid=1111039 / frame-threads=4 / numa-pools=16 / wpp / no-pmode / no-pme / no-psnr / no-ssim / log-level=2 / input-csp=1 / input-res=3840x2080 / interlace=0 / total-frames=144168 / level-idc=51 / high-tier=1 / uhd-bd=0 / ref=4 / no-allow-non-conformance / repeat-headers / annexb / aud / hrd / info / hash=0 / no-temporal-layers / no-open-gop / min-keyint=24 / keyint=240 / gop-lookahead=0 / bframes=4 / b-adapt=2 / b-pyramid / bframe-bias=0 / rc-lookahead=25 / lookahead-slices=4 / scenecut=40 / radl=0 / no-splice / no-intra-refresh / ctu=64 / min-cu-size=8 / rect / no-amp / max-tu-size=32 / tu-inter-depth=1 / tu-intra-depth=1 / limit-tu=0 / rdoq-level=2 / dynamic-rd=0.00 / no-ssim-rd / signhide / no-tskip / nr-intra=0 / nr-inter=0 / no-constrained-intra / no-strong-intra-smoothing / max-merge=3 / limit-refs=3 / limit-modes / me=3 / subme=3 / merange=57 / temporal-mvp / weightp / no-weightb / no-analyze-src-pics / deblock=-3:-3 / no-sao / no-sao-non-deblock / rd=4 / no-early-skip / rskip / no-fast-intra / no-tskip-fast / no-cu-lossless / no-b-intra / no-splitrd-skip / rdpenalty=0 / psy-rd=2.00 / psy-rdoq=1.00 / no-rd-refine / no-lossless / cbqpoffs=0 / crqpoffs=0 / rc=crf / crf=17.0 / qcomp=0.60 / qpstep=4 / stats-write=0 / stats-read=0 / vbv-maxrate=160000 / vbv-bufsize=160000 / vbv-init=0.9 / crf-max=0.0 / crf-min=0.0 / ipratio=1.40 / pbratio=1.30 / aq-mode=2 / aq-strength=1.00 / cutree / zone-count=0 / no-strict-cbr / qg-size=32 / no-rc-grain / qpmax=69 / qpmin=0 / no-const-vbv / sar=1 / overscan=0 / videoformat=5 / range=0 / colorprim=9 / transfer=16 / colormatrix=9 / chromaloc=1 / chromaloc-top=2 / chromaloc-bottom=2 / display-window=0 / master-display=G(13250,34500)B(7500,3000)R(34000,16000)WP(15635,16450)L(10000000,50)cll=1000,0 / min-luma=0 / max-luma=1023 / log2-max-poc-lsb=8 / vui-timing-info / vui-hrd-info / slices=1 / no-opt-qp-pps / no-opt-ref-list-length-pps / no-multi-pass-opt-rps / scenecut-bias=0.05 / no-opt-cu-delta-qp / no-aq-motion / hdr / hdr-opt / no-dhdr10-opt / no-idr-recovery-sei / analysis-reuse-level=5 / scale-factor=0 / refine-intra=0 / refine-inter=0 / refine-mv=0 / refine-ctu-distortion=0 / no-limit-sao / ctu-info=0 / no-lowpass-dct / refine-analysis-type=0 / copy-pic=1 / max-ausize-factor=1.0 / no-dynamic-refine / no-single-sei / no-hevc-aq / no-svt / no-field / qp-adaptation-range=1.00
  22. Default                                  : Yes
  23. Forced                                   : No
  24. Color range                              : Limited
  25. Color primaries                          : BT.2020
  26. Transfer characteristics                 : PQ
  27. Matrix coefficients                      : BT.2020 non-constant
  28. Mastering display color primaries        : Display P3
  29. Mastering display luminance              : min: 0.0050 cd/m2, max: 1000 cd/m2
  30. Maximum Content Light Level              : 1000 cd/m2
  31. Audio
  32. ID                                       : 2
  33. Format                                   : DTS XLL
  34. Format/Info                              : Digital Theater Systems
  35. Commercial name                          : DTS-HD Master Audio
  36. Codec ID                                 : A_DTS
  37. Duration                                 : 1 h 39 min
  38. Bit rate mode                            : Variable
  39. Bit rate                                 : 1 818 kb/s
  40. Channel(s)                               : 6 channels
  41. Channel layout                           : C L R Ls Rs LFE
  42. Sampling rate                            : 48.0 kHz
  43. Frame rate                               : 93.750 FPS (512 SPF)
  44. Bit depth                                : 16 bits
  45. Compression mode                         : Lossless
  46. Stream size                              : 1.27 GiB (20%)
  47. Language                                 : English
  48. Default                                  : Yes
  49. Forced                                   : No
  50. Menu
  51. 00:00:00.000                             : :Kapitel 01
  52. 00:05:35.209                             : :Kapitel 02
  53. 00:13:03.157                             : :Kapitel 03
  54. 00:21:03.011                             : :Kapitel 04
  55. 00:29:37.859                             : :Kapitel 05
  56. 00:39:38.250                             : :Kapitel 06
  57. 00:46:35.083                             : :Kapitel 07
  58. 00:49:51.154                             : :Kapitel 08
  59. 00:57:45.211                             : :Kapitel 09
  60. 01:02:47.722                             : :Kapitel 10
  61. 01:07:45.853                             : :Kapitel 11
  62. 01:19:16.877                             : :Kapitel 12
  63. 01:39:58.958                             : :Kapitel 13
  64. 01:40:07.967                             : :Kapitel 14
复制代码






                                       
                                       

                                       
                                       
                                       




回复

使用道具 举报

懒得打字嘛,点击右侧快捷回复 【右侧内容,后台自定义】
您需要登录后才可以回帖 登录 | 立即加入

本版积分规则

Archiver|小黑屋| 蓝光电影网 |网站地图

Copyright © 2021 Comsenz Inc. Powered by 蓝光电影网

蓝光电影网

本站内容由用户自主分享和转载自互联网,转载目的在于传递更多信息,并不代表本网赞同其观点和对其真实性负责。

如有侵权、违反国家法律政策行为,请联系我们,我们会第一时间及时清除和处理!

举报反馈邮箱:[email protected]

快速回复 返回顶部 返回列表