找回密码

蓝光电影网

查看: 11|回复: 0

[UHD.HEVC] 黑鹰坠落/黑鹰15小时 Black.Hawk.Down.2001.EXTENDED.2160p.BluRay.REMUX.HEVC.DTS-HD.MA.TrueHD.7.1.Atmos-FGT 67.58GB

[复制链接]
蓝光币
382
发表于 2019-5-22 19:29:11 | 显示全部楼层 |阅读模式




◎译  名 黑鹰坠落 / 黑鹰15小时 / 黑鹰计划 / 黑鹰下降
◎片  名 Black Hawk Down
◎年  代 2001
◎产  地 美国
◎类  别 行动 / 历史 / 战争
◎语  言 英语 / 阿拉伯语 / 索马里语
◎上映日期 2001-12-18(美国)
◎IMDb评分  7.7/10 from 338784 users
◎IMDb链接  http://www.imdb.com/title/tt0265086
◎豆瓣评分 8.6/10 from 160986 users
◎豆瓣链接 https://movie.douban.com/subject/1291824/
◎片  长 144分钟
◎导  演 雷德利·斯科特 Ridley Scott
◎编  剧 Ken Nolan / Mark Bowden
◎主  演 乔什·哈奈特 Josh Hartnett
      伊万·麦克格雷格 Ewan McGregor
      汤姆·塞兹摩尔 Tom Sizemore
      金·寇兹 Kim Coates
      艾文·布莱纳 Ewen Bremner
      艾瑞克·巴纳 Eric Bana
      休·丹西 Hugh Dancy
      威廉·菲德内尔 William Fichtner
      奥兰多·布鲁姆 Orlando Bloom
      汤姆·哈迪 Tom Hardy
      詹森·艾萨克 Jason Isaacs

◎标  签 战争 | 美国 | 索马里 | 典范 | 美国电影 | 戰爭 | 2001 | 行动
◎简  介  
  1992年,比年的部落战争令东非国家索马里山河破败,生灵涂炭,由此激发的大饥荒更形成三十万人灭亡。掌控都城摩加迪休的独裁者默罕默德?法拉?艾迪德抢走国际构造的救济物资,此举引发众人众怒。丧芥蒂狂的艾迪德向国际维和构造宣战,美国方面派出160名特种军队成员前往摩加迪休以颠覆艾迪德政权。
这群满腔热血的战士信心实足,但是却因情报汇集不敷而使战事堕入胶着状态。在一次追捕艾迪德政权两大高官的行动中,特种军队遭到索马里民兵的顽强抵抗。双方在市中心展开剧烈对峙,美军一架黑鹰直升机遭到进犯坠落郊区,机组职员危在旦夕。为了救援同伴,一小队特种军队兵士深入虎穴。在接下来的15小时里,他们履历了人世最难以设想的修罗场……
◎获奖情况  
  第74届奥斯卡金像奖(2002)
  最好导演(提名) 雷德利·斯科特
  最好摄影(提名) 斯拉沃米尔·埃迪扎克
  最好剪辑 彼得罗·斯卡利亚
  最好声响 Chris Munro / 迈克尔·明克勒 / Myron Nettinga
  第2届美国电影学会奖(2001)
  年度佳片

  1. Video
  2. ID                                       : 1
  3. Format                                   : HEVC
  4. Format/Info                              : High Efficiency Video Coding
  5. Commercial name                          : HDR10
  6. Format profile                           : Main [email protected]@High
  7. Codec ID                                 : V_MPEGH/ISO/HEVC
  8. Duration                                 : 2 h 31 min
  9. Bit rate                                 : 51.7 Mb/s
  10. Width                                    : 3 840 pixels
  11. Height                                   : 2 160 pixels
  12. Display aspect ratio                     : 16:9
  13. Frame rate mode                          : Constant
  14. Frame rate                               : 23.976 (24000/1001) FPS
  15. Color space                              : YUV
  16. Chroma subsampling                       : 4:2:0 (Type 2)
  17. Bit depth                                : 10 bits
  18. Bits/(Pixel*Frame)                       : 0.260
  19. Stream size                              : 54.8 GiB (81%)
  20. Title                                    : Black.Hawk.Down.2001.EXTENDED.2160p.BluRay.REMUX.HEVC.DTS-HD.MA.TrueHD.7.1.Atmos-FGT
  21. Language                                 : English
  22. Default                                  : No
  23. Forced                                   : No
  24. Color range                              : Limited
  25. Color primaries                          : BT.2020
  26. Transfer characteristics                 : PQ
  27. Matrix coefficients                      : BT.2020 non-constant
  28. Mastering display color primaries        : Display P3
  29. Mastering display luminance              : min: 0.0050 cd/m2, max: 4000 cd/m2
  30. Maximum Content Light Level              : 4000 cd/m2
  31. Maximum Frame-Average Light Level        : 1391 cd/m2
  32. Audio #1
  33. ID                                       : 2
  34. Format                                   : MLP FBA 16-ch
  35. Format/Info                              : Meridian Lossless Packing FBA with 16-channel presentation
  36. Commercial name                          : Dolby TrueHD with Dolby Atmos
  37. Codec ID                                 : A_TRUEHD
  38. Duration                                 : 2 h 31 min
  39. Bit rate mode                            : Variable
  40. Bit rate                                 : 3 947 kb/s
  41. Maximum bit rate                         : 6 000 kb/s
  42. Channel(s)                               : 8 channels
  43. Channel layout                           : L R C LFE Ls Rs Lb Rb
  44. Sampling rate                            : 48.0 kHz
  45. Frame rate                               : 1 200.000 FPS (40 SPF)
  46. Compression mode                         : Lossless
  47. Stream size                              : 4.19 GiB (6%)
  48. Title                                    : Black.Hawk.Down.2001.EXTENDED.2160p.BluRay.REMUX.HEVC.DTS-HD.MA.TrueHD.7.1.Atmos-FGT
  49. Language                                 : English
  50. Default                                  : Yes
  51. Forced                                   : No
  52. Number of dynamic objects                : 11
  53. Bed channel count                        : 1 channel
  54. Bed channel configuration                : LFE
  55. Audio #2
  56. ID                                       : 3
  57. Format                                   : DTS XLL
  58. Format/Info                              : Digital Theater Systems
  59. Commercial name                          : DTS-HD Master Audio
  60. Codec ID                                 : A_DTS
  61. Duration                                 : 2 h 31 min
  62. Bit rate mode                            : Variable
  63. Bit rate                                 : 4 760 kb/s
  64. Channel(s)                               : 8 channels
  65. Channel layout                           : C L R LFE Lb Rb Lss Rss
  66. Sampling rate                            : 48.0 kHz
  67. Frame rate                               : 93.750 FPS (512 SPF)
  68. Bit depth                                : 24 bits
  69. Compression mode                         : Lossless
  70. Stream size                              : 5.05 GiB (7%)
  71. Title                                    : Black.Hawk.Down.2001.EXTENDED.2160p.BluRay.REMUX.HEVC.DTS-HD.MA.TrueHD.7.1.Atmos-FGT
  72. Language                                 : English
  73. Default                                  : No
  74. Forced                                   : No
  75. Audio #3
  76. ID                                       : 4
  77. Format                                   : AC-3
  78. Format/Info                              : Audio Coding 3
  79. Commercial name                          : Dolby Digital
  80. Codec ID                                 : A_AC3
  81. Duration                                 : 2 h 31 min
  82. Bit rate mode                            : Constant
  83. Bit rate                                 : 640 kb/s
  84. Channel(s)                               : 6 channels
  85. Channel layout                           : L R C LFE Ls Rs
  86. Sampling rate                            : 48.0 kHz
  87. Frame rate                               : 31.250 FPS (1536 SPF)
  88. Bit depth                                : 16 bits
  89. Compression mode                         : Lossy
  90. Stream size                              : 695 MiB (1%)
  91. Title                                    : Black.Hawk.Down.2001.EXTENDED.2160p.BluRay.REMUX.HEVC.DTS-HD.MA.TrueHD.7.1.Atmos-FGT
  92. Language                                 : English
  93. Service kind                             : Complete Main
  94. Default                                  : No
  95. Forced                                   : No
  96. Audio #4
  97. ID                                       : 5
  98. Format                                   : AC-3
  99. Format/Info                              : Audio Coding 3
  100. Commercial name                          : Dolby Digital
  101. Codec ID                                 : A_AC3
  102. Duration                                 : 2 h 31 min
  103. Bit rate mode                            : Constant
  104. Bit rate                                 : 192 kb/s
  105. Channel(s)                               : 2 channels
  106. Channel layout                           : L R
  107. Sampling rate                            : 48.0 kHz
  108. Frame rate                               : 31.250 FPS (1536 SPF)
  109. Bit depth                                : 16 bits
  110. Compression mode                         : Lossy
  111. Stream size                              : 209 MiB (0%)
  112. Title                                    : Black.Hawk.Down.2001.EXTENDED.2160p.BluRay.REMUX.HEVC.DTS-HD.MA.TrueHD.7.1.Atmos-FGT
  113. Language                                 : Czech
  114. Service kind                             : Complete Main
  115. Default                                  : No
  116. Forced                                   : No
  117. Audio #5
  118. ID                                       : 6
  119. Format                                   : AC-3
  120. Format/Info                              : Audio Coding 3
  121. Commercial name                          : Dolby Digital
  122. Codec ID                                 : A_AC3
  123. Duration                                 : 2 h 31 min
  124. Bit rate mode                            : Constant
  125. Bit rate                                 : 448 kb/s
  126. Channel(s)                               : 6 channels
  127. Channel layout                           : L R C LFE Ls Rs
  128. Sampling rate                            : 48.0 kHz
  129. Frame rate                               : 31.250 FPS (1536 SPF)
  130. Bit depth                                : 16 bits
  131. Compression mode                         : Lossy
  132. Stream size                              : 487 MiB (1%)
  133. Title                                    : Black.Hawk.Down.2001.EXTENDED.2160p.BluRay.REMUX.HEVC.DTS-HD.MA.TrueHD.7.1.Atmos-FGT
  134. Language                                 : French
  135. Service kind                             : Complete Main
  136. Default                                  : No
  137. Forced                                   : No
  138. Audio #6
  139. ID                                       : 7
  140. Format                                   : AC-3
  141. Format/Info                              : Audio Coding 3
  142. Commercial name                          : Dolby Digital
  143. Codec ID                                 : A_AC3
  144. Duration                                 : 2 h 31 min
  145. Bit rate mode                            : Constant
  146. Bit rate                                 : 448 kb/s
  147. Channel(s)                               : 6 channels
  148. Channel layout                           : L R C LFE Ls Rs
  149. Sampling rate                            : 48.0 kHz
  150. Frame rate                               : 31.250 FPS (1536 SPF)
  151. Bit depth                                : 16 bits
  152. Compression mode                         : Lossy
  153. Stream size                              : 487 MiB (1%)
  154. Title                                    : Black.Hawk.Down.2001.EXTENDED.2160p.BluRay.REMUX.HEVC.DTS-HD.MA.TrueHD.7.1.Atmos-FGT
  155. Language                                 : Italian
  156. Service kind                             : Complete Main
  157. Default                                  : No
  158. Forced                                   : No
  159. Audio #7
  160. ID                                       : 8
  161. Format                                   : AC-3
  162. Format/Info                              : Audio Coding 3
  163. Commercial name                          : Dolby Digital
  164. Codec ID                                 : A_AC3
  165. Duration                                 : 2 h 31 min
  166. Bit rate mode                            : Constant
  167. Bit rate                                 : 192 kb/s
  168. Channel(s)                               : 2 channels
  169. Channel layout                           : L R
  170. Sampling rate                            : 48.0 kHz
  171. Frame rate                               : 31.250 FPS (1536 SPF)
  172. Bit depth                                : 16 bits
  173. Compression mode                         : Lossy
  174. Stream size                              : 209 MiB (0%)
  175. Title                                    : Black.Hawk.Down.2001.EXTENDED.2160p.BluRay.REMUX.HEVC.DTS-HD.MA.TrueHD.7.1.Atmos-FGT
  176. Language                                 : Polish
  177. Service kind                             : Complete Main
  178. Default                                  : No
  179. Forced                                   : No
  180. Audio #8
  181. ID                                       : 9
  182. Format                                   : AC-3
  183. Format/Info                              : Audio Coding 3
  184. Commercial name                          : Dolby Digital
  185. Codec ID                                 : A_AC3
  186. Duration                                 : 2 h 31 min
  187. Bit rate mode                            : Constant
  188. Bit rate                                 : 448 kb/s
  189. Channel(s)                               : 6 channels
  190. Channel layout                           : L R C LFE Ls Rs
  191. Sampling rate                            : 48.0 kHz
  192. Frame rate                               : 31.250 FPS (1536 SPF)
  193. Bit depth                                : 16 bits
  194. Compression mode                         : Lossy
  195. Stream size                              : 487 MiB (1%)
  196. Title                                    : Black.Hawk.Down.2001.EXTENDED.2160p.BluRay.REMUX.HEVC.DTS-HD.MA.TrueHD.7.1.Atmos-FGT
  197. Language                                 : Portuguese
  198. Service kind                             : Complete Main
  199. Default                                  : No
  200. Forced                                   : No
  201. Audio #9
  202. ID                                       : 10
  203. Format                                   : AC-3
  204. Format/Info                              : Audio Coding 3
  205. Commercial name                          : Dolby Digital
  206. Codec ID                                 : A_AC3
  207. Duration                                 : 2 h 31 min
  208. Bit rate mode                            : Constant
  209. Bit rate                                 : 448 kb/s
  210. Channel(s)                               : 6 channels
  211. Channel layout                           : L R C LFE Ls Rs
  212. Sampling rate                            : 48.0 kHz
  213. Frame rate                               : 31.250 FPS (1536 SPF)
  214. Bit depth                                : 16 bits
  215. Compression mode                         : Lossy
  216. Stream size                              : 487 MiB (1%)
  217. Title                                    : Black.Hawk.Down.2001.EXTENDED.2160p.BluRay.REMUX.HEVC.DTS-HD.MA.TrueHD.7.1.Atmos-FGT
  218. Language                                 : Spanish
  219. Service kind                             : Complete Main
  220. Default                                  : No
  221. Forced                                   : No
  222. Audio #10
  223. ID                                       : 11
  224. Format                                   : AC-3
  225. Format/Info                              : Audio Coding 3
  226. Commercial name                          : Dolby Digital
  227. Codec ID                                 : A_AC3
  228. Duration                                 : 2 h 31 min
  229. Bit rate mode                            : Constant
  230. Bit rate                                 : 192 kb/s
  231. Channel(s)                               : 2 channels
  232. Channel layout                           : L R
  233. Sampling rate                            : 48.0 kHz
  234. Frame rate                               : 31.250 FPS (1536 SPF)
  235. Bit depth                                : 16 bits
  236. Compression mode                         : Lossy
  237. Stream size                              : 209 MiB (0%)
  238. Title                                    : Black.Hawk.Down.2001.EXTENDED.2160p.BluRay.REMUX.HEVC.DTS-HD.MA.TrueHD.7.1.Atmos-FGT
  239. Language                                 : Spanish
  240. Service kind                             : Complete Main
  241. Default                                  : No
  242. Forced                                   : No
  243. Text #1
  244. ID                                       : 12
  245. Format                                   : UTF-8
  246. Codec ID                                 : S_TEXT/UTF8
  247. Codec ID/Info                            : UTF-8 Plain Text
  248. Duration                                 : 1 h 50 min
  249. Bit rate                                 : 0 b/s
  250. Count of elements                        : 12
  251. Stream size                              : 238 Bytes (0%)
  252. Title                                    : English-FORCED-SRT
  253. Language                                 : English
  254. Default                                  : Yes
  255. Forced                                   : Yes
  256. Text #2
  257. ID                                       : 13
  258. Format                                   : UTF-8
  259. Codec ID                                 : S_TEXT/UTF8
  260. Codec ID/Info                            : UTF-8 Plain Text
  261. Duration                                 : 2 h 24 min
  262. Bit rate                                 : 50 b/s
  263. Count of elements                        : 1687
  264. Stream size                              : 53.5 KiB (0%)
  265. Title                                    : English-SRT
  266. Language                                 : English
  267. Default                                  : No
  268. Forced                                   : No
  269. Text #3
  270. ID                                       : 14
  271. Format                                   : UTF-8
  272. Codec ID                                 : S_TEXT/UTF8
  273. Codec ID/Info                            : UTF-8 Plain Text
  274. Duration                                 : 2 h 30 min
  275. Bit rate                                 : 53 b/s
  276. Count of elements                        : 1923
  277. Stream size                              : 58.5 KiB (0%)
  278. Title                                    : English-SDH-SRT
  279. Language                                 : English
  280. Default                                  : No
  281. Forced                                   : No
  282. Text #4
  283. ID                                       : 15
  284. Format                                   : PGS
  285. Muxing mode                              : zlib
  286. Codec ID                                 : S_HDMV/PGS
  287. Codec ID/Info                            : Picture based subtitle format used on BDs/HD-DVDs
  288. Duration                                 : 2 h 30 min
  289. Bit rate                                 : 35.7 kb/s
  290. Count of elements                        : 3862
  291. Stream size                              : 38.3 MiB (0%)
  292. Title                                    : English-SDH-PGS
  293. Language                                 : English
  294. Default                                  : No
  295. Forced                                   : No
  296. Text #5
  297. ID                                       : 16
  298. Format                                   : PGS
  299. Muxing mode                              : zlib
  300. Codec ID                                 : S_HDMV/PGS
  301. Codec ID/Info                            : Picture based subtitle format used on BDs/HD-DVDs
  302. Duration                                 : 2 h 20 min
  303. Bit rate                                 : 31.5 kb/s
  304. Count of elements                        : 3226
  305. Stream size                              : 31.6 MiB (0%)
  306. Title                                    : English-PGS
  307. Language                                 : English
  308. Default                                  : No
  309. Forced                                   : No
  310. Text #6
  311. ID                                       : 17
  312. Format                                   : PGS
  313. Muxing mode                              : zlib
  314. Codec ID                                 : S_HDMV/PGS
  315. Codec ID/Info                            : Picture based subtitle format used on BDs/HD-DVDs
  316. Duration                                 : 2 h 26 min
  317. Bit rate                                 : 16.2 kb/s
  318. Count of elements                        : 3104
  319. Stream size                              : 16.9 MiB (0%)
  320. Title                                    : Arabic-PGS
  321. Language                                 : Arabic
  322. Default                                  : No
  323. Forced                                   : No
  324. Text #7
  325. ID                                       : 18
  326. Format                                   : PGS
  327. Muxing mode                              : zlib
  328. Codec ID                                 : S_HDMV/PGS
  329. Codec ID/Info                            : Picture based subtitle format used on BDs/HD-DVDs
  330. Duration                                 : 2 h 26 min
  331. Bit rate                                 : 28.8 kb/s
  332. Count of elements                        : 3104
  333. Stream size                              : 30.1 MiB (0%)
  334. Title                                    : Bulgarian-PGS
  335. Language                                 : Bulgarian
  336. Default                                  : No
  337. Forced                                   : No
  338. Text #8
  339. ID                                       : 19
  340. Format                                   : PGS
  341. Muxing mode                              : zlib
  342. Codec ID                                 : S_HDMV/PGS
  343. Codec ID/Info                            : Picture based subtitle format used on BDs/HD-DVDs
  344. Duration                                 : 2 h 26 min
  345. Bit rate                                 : 20.2 kb/s
  346. Count of elements                        : 3093
  347. Stream size                              : 21.1 MiB (0%)
  348. Title                                    : Chinese-PGS
  349. Language                                 : Chinese
  350. Default                                  : No
  351. Forced                                   : No
  352. Text #9
  353. ID                                       : 20
  354. Format                                   : PGS
  355. Muxing mode                              : zlib
  356. Codec ID                                 : S_HDMV/PGS
  357. Codec ID/Info                            : Picture based subtitle format used on BDs/HD-DVDs
  358. Duration                                 : 2 h 26 min
  359. Bit rate                                 : 26.1 kb/s
  360. Count of elements                        : 2899
  361. Stream size                              : 27.3 MiB (0%)
  362. Title                                    : Croatian-PGS
  363. Language                                 : Croatian
  364. Default                                  : No
  365. Forced                                   : No
  366. Text #10
  367. ID                                       : 21
  368. Format                                   : PGS
  369. Muxing mode                              : zlib
  370. Codec ID                                 : S_HDMV/PGS
  371. Codec ID/Info                            : Picture based subtitle format used on BDs/HD-DVDs
  372. Duration                                 : 2 h 26 min
  373. Bit rate                                 : 27.2 kb/s
  374. Count of elements                        : 3074
  375. Stream size                              : 28.4 MiB (0%)
  376. Title                                    : Czech-PGS
  377. Language                                 : Czech
  378. Default                                  : No
  379. Forced                                   : No
  380. Text #11
  381. ID                                       : 22
  382. Format                                   : PGS
  383. Muxing mode                              : zlib
  384. Codec ID                                 : S_HDMV/PGS
  385. Codec ID/Info                            : Picture based subtitle format used on BDs/HD-DVDs
  386. Duration                                 : 2 h 26 min
  387. Bit rate                                 : 28.8 kb/s
  388. Count of elements                        : 3085
  389. Stream size                              : 30.1 MiB (0%)
  390. Title                                    : Danish-PGS
  391. Language                                 : Danish
  392. Default                                  : No
  393. Forced                                   : No
  394. Text #12
  395. ID                                       : 23
  396. Format                                   : PGS
  397. Muxing mode                              : zlib
  398. Codec ID                                 : S_HDMV/PGS
  399. Codec ID/Info                            : Picture based subtitle format used on BDs/HD-DVDs
  400. Duration                                 : 2 h 26 min
  401. Bit rate                                 : 30.1 kb/s
  402. Count of elements                        : 3050
  403. Stream size                              : 31.4 MiB (0%)
  404. Title                                    : Dutch-PGS
  405. Language                                 : Dutch
  406. Default                                  : No
  407. Forced                                   : No
  408. Text #13
  409. ID                                       : 24
  410. Format                                   : PGS
  411. Muxing mode                              : zlib
  412. Codec ID                                 : S_HDMV/PGS
  413. Codec ID/Info                            : Picture based subtitle format used on BDs/HD-DVDs
  414. Duration                                 : 2 h 26 min
  415. Bit rate                                 : 29.2 kb/s
  416. Count of elements                        : 3027
  417. Stream size                              : 30.5 MiB (0%)
  418. Title                                    : Finnish-PGS
  419. Language                                 : Finnish
  420. Default                                  : No
  421. Forced                                   : No
  422. Text #14
  423. ID                                       : 25
  424. Format                                   : PGS
  425. Muxing mode                              : zlib
  426. Codec ID                                 : S_HDMV/PGS
  427. Codec ID/Info                            : Picture based subtitle format used on BDs/HD-DVDs
  428. Duration                                 : 2 h 30 min
  429. Bit rate                                 : 23.0 kb/s
  430. Count of elements                        : 2848
  431. Stream size                              : 24.7 MiB (0%)
  432. Title                                    : French-PGS
  433. Language                                 : French
  434. Default                                  : No
  435. Forced                                   : No
  436. Text #15
  437. ID                                       : 26
  438. Format                                   : PGS
  439. Muxing mode                              : zlib
  440. Codec ID                                 : S_HDMV/PGS
  441. Codec ID/Info                            : Picture based subtitle format used on BDs/HD-DVDs
  442. Duration                                 : 2 h 26 min
  443. Bit rate                                 : 30.5 kb/s
  444. Count of elements                        : 3062
  445. Stream size                              : 31.8 MiB (0%)
  446. Title                                    : Greek-PGS
  447. Language                                 : Greek
  448. Default                                  : No
  449. Forced                                   : No
  450. Text #16
  451. ID                                       : 27
  452. Format                                   : PGS
  453. Muxing mode                              : zlib
  454. Codec ID                                 : S_HDMV/PGS
  455. Codec ID/Info                            : Picture based subtitle format used on BDs/HD-DVDs
  456. Duration                                 : 2 h 26 min
  457. Bit rate                                 : 22.3 kb/s
  458. Count of elements                        : 3108
  459. Stream size                              : 23.3 MiB (0%)
  460. Title                                    : Hindi-PGS
  461. Language                                 : Hindi
  462. Default                                  : No
  463. Forced                                   : No
  464. Text #17
  465. ID                                       : 28
  466. Format                                   : PGS
  467. Muxing mode                              : zlib
  468. Codec ID                                 : S_HDMV/PGS
  469. Codec ID/Info                            : Picture based subtitle format used on BDs/HD-DVDs
  470. Duration                                 : 2 h 26 min
  471. Bit rate                                 : 30.2 kb/s
  472. Count of elements                        : 3140
  473. Stream size                              : 31.5 MiB (0%)
  474. Title                                    : Hungarian-PGS
  475. Language                                 : Hungarian
  476. Default                                  : No
  477. Forced                                   : No
  478. Text #18
  479. ID                                       : 29
  480. Format                                   : PGS
  481. Muxing mode                              : zlib
  482. Codec ID                                 : S_HDMV/PGS
  483. Codec ID/Info                            : Picture based subtitle format used on BDs/HD-DVDs
  484. Duration                                 : 2 h 26 min
  485. Bit rate                                 : 28.2 kb/s
  486. Count of elements                        : 3049
  487. Stream size                              : 29.4 MiB (0%)
  488. Title                                    : Italian-PGS
  489. Language                                 : Italian
  490. Default                                  : No
  491. Forced                                   : No
  492. Text #19
  493. ID                                       : 30
  494. Format                                   : PGS
  495. Muxing mode                              : zlib
  496. Codec ID                                 : S_HDMV/PGS
  497. Codec ID/Info                            : Picture based subtitle format used on BDs/HD-DVDs
  498. Duration                                 : 2 h 26 min
  499. Bit rate                                 : 14.9 kb/s
  500. Count of elements                        : 3103
  501. Stream size                              : 15.6 MiB (0%)
  502. Title                                    : Korean-PGS
  503. Language                                 : Korean
  504. Default                                  : No
  505. Forced                                   : No
  506. Text #20
  507. ID                                       : 31
  508. Format                                   : PGS
  509. Muxing mode                              : zlib
  510. Codec ID                                 : S_HDMV/PGS
  511. Codec ID/Info                            : Picture based subtitle format used on BDs/HD-DVDs
  512. Duration                                 : 2 h 26 min
  513. Bit rate                                 : 27.6 kb/s
  514. Count of elements                        : 3094
  515. Stream size                              : 28.8 MiB (0%)
  516. Title                                    : Norwegian-PGS
  517. Language                                 : Norwegian
  518. Default                                  : No
  519. Forced                                   : No
  520. Text #21
  521. ID                                       : 32
  522. Format                                   : PGS
  523. Muxing mode                              : zlib
  524. Codec ID                                 : S_HDMV/PGS
  525. Codec ID/Info                            : Picture based subtitle format used on BDs/HD-DVDs
  526. Duration                                 : 2 h 30 min
  527. Bit rate                                 : 28.4 kb/s
  528. Count of elements                        : 3100
  529. Stream size                              : 30.6 MiB (0%)
  530. Title                                    : Polish-PGS
  531. Language                                 : Polish
  532. Default                                  : No
  533. Forced                                   : No
  534. Text #22
  535. ID                                       : 33
  536. Format                                   : PGS
  537. Muxing mode                              : zlib
  538. Codec ID                                 : S_HDMV/PGS
  539. Codec ID/Info                            : Picture based subtitle format used on BDs/HD-DVDs
  540. Duration                                 : 2 h 26 min
  541. Bit rate                                 : 28.1 kb/s
  542. Count of elements                        : 2698
  543. Stream size                              : 29.4 MiB (0%)
  544. Title                                    : Portuguese-PGS
  545. Language                                 : Portuguese
  546. Default                                  : No
  547. Forced                                   : No
  548. Text #23
  549. ID                                       : 34
  550. Format                                   : PGS
  551. Muxing mode                              : zlib
  552. Codec ID                                 : S_HDMV/PGS
  553. Codec ID/Info                            : Picture based subtitle format used on BDs/HD-DVDs
  554. Duration                                 : 2 h 26 min
  555. Bit rate                                 : 28.6 kb/s
  556. Count of elements                        : 3176
  557. Stream size                              : 29.9 MiB (0%)
  558. Title                                    : Romanian-PGS
  559. Language                                 : Romanian
  560. Default                                  : No
  561. Forced                                   : No
  562. Text #24
  563. ID                                       : 35
  564. Format                                   : PGS
  565. Muxing mode                              : zlib
  566. Codec ID                                 : S_HDMV/PGS
  567. Codec ID/Info                            : Picture based subtitle format used on BDs/HD-DVDs
  568. Duration                                 : 2 h 26 min
  569. Bit rate                                 : 28.4 kb/s
  570. Count of elements                        : 3088
  571. Stream size                              : 29.7 MiB (0%)
  572. Title                                    : Russian-PGS
  573. Language                                 : Russian
  574. Default                                  : No
  575. Forced                                   : No
  576. Text #25
  577. ID                                       : 36
  578. Format                                   : PGS
  579. Muxing mode                              : zlib
  580. Codec ID                                 : S_HDMV/PGS
  581. Codec ID/Info                            : Picture based subtitle format used on BDs/HD-DVDs
  582. Duration                                 : 2 h 30 min
  583. Bit rate                                 : 23.1 kb/s
  584. Count of elements                        : 2891
  585. Stream size                              : 24.9 MiB (0%)
  586. Title                                    : Slovenian-PGS
  587. Language                                 : Slovenian
  588. Default                                  : No
  589. Forced                                   : No
  590. Text #26
  591. ID                                       : 37
  592. Format                                   : PGS
  593. Muxing mode                              : zlib
  594. Codec ID                                 : S_HDMV/PGS
  595. Codec ID/Info                            : Picture based subtitle format used on BDs/HD-DVDs
  596. Duration                                 : 2 h 26 min
  597. Bit rate                                 : 31.2 kb/s
  598. Count of elements                        : 3270
  599. Stream size                              : 32.6 MiB (0%)
  600. Title                                    : Spanish-PGS
  601. Language                                 : Spanish
  602. Default                                  : No
  603. Forced                                   : No
  604. Text #27
  605. ID                                       : 38
  606. Format                                   : PGS
  607. Muxing mode                              : zlib
  608. Codec ID                                 : S_HDMV/PGS
  609. Codec ID/Info                            : Picture based subtitle format used on BDs/HD-DVDs
  610. Duration                                 : 2 h 26 min
  611. Bit rate                                 : 29.8 kb/s
  612. Count of elements                        : 3117
  613. Stream size                              : 31.1 MiB (0%)
  614. Title                                    : Spanish-PGS
  615. Language                                 : Spanish
  616. Default                                  : No
  617. Forced                                   : No
  618. Text #28
  619. ID                                       : 39
  620. Format                                   : PGS
  621. Muxing mode                              : zlib
  622. Codec ID                                 : S_HDMV/PGS
  623. Codec ID/Info                            : Picture based subtitle format used on BDs/HD-DVDs
  624. Duration                                 : 2 h 30 min
  625. Bit rate                                 : 28.4 kb/s
  626. Count of elements                        : 3115
  627. Stream size                              : 30.6 MiB (0%)
  628. Title                                    : Swedish-PGS
  629. Language                                 : Swedish
  630. Default                                  : No
  631. Forced                                   : No
  632. Text #29
  633. ID                                       : 40
  634. Format                                   : PGS
  635. Muxing mode                              : zlib
  636. Codec ID                                 : S_HDMV/PGS
  637. Codec ID/Info                            : Picture based subtitle format used on BDs/HD-DVDs
  638. Duration                                 : 2 h 26 min
  639. Bit rate                                 : 19.3 kb/s
  640. Count of elements                        : 3089
  641. Stream size                              : 20.1 MiB (0%)
  642. Title                                    : Thai-PGS
  643. Language                                 : Thai
  644. Default                                  : No
  645. Forced                                   : No
  646. Text #30
  647. ID                                       : 41
  648. Format                                   : PGS
  649. Muxing mode                              : zlib
  650. Codec ID                                 : S_HDMV/PGS
  651. Codec ID/Info                            : Picture based subtitle format used on BDs/HD-DVDs
  652. Duration                                 : 2 h 26 min
  653. Bit rate                                 : 29.1 kb/s
  654. Count of elements                        : 3076
  655. Stream size                              : 30.4 MiB (0%)
  656. Title                                    : Turkish-PGS
  657. Language                                 : Turkish
  658. Default                                  : No
  659. Forced                                   : No
  660. Menu
  661. 00:00:00.000                             : en:Chapter 01
  662. 00:21:48.682                             : en:Chapter 02
  663. 00:31:39.939                             : en:Chapter 03
  664. 00:39:19.940                             : en:Chapter 04
  665. 00:43:25.519                             : en:Chapter 05
  666. 00:54:04.074                             : en:Chapter 06
  667. 01:02:18.317                             : en:Chapter 07
  668. 01:10:22.051                             : en:Chapter 08
  669. 01:28:36.811                             : en:Chapter 09
  670. 01:30:26.671                             : en:Chapter 10
  671. 01:43:36.376                             : en:Chapter 11
  672. 01:48:49.648                             : en:Chapter 12
  673. 02:02:18.873                             : en:Chapter 13
  674. 02:06:20.489                             : en:Chapter 14
  675. 02:11:28.630                             : en:Chapter 15
  676. 02:20:13.029                             : en:Chapter 16
复制代码






                                       
                                       

                                       
                                       
                                       




黑鹰坠落/黑鹰15小时 Black.Hawk.Down.2001.EXTENDED.2160p.BluRay.REMUX.HEVC.DTS-HD.MA.TrueHD.7.1.Atmos-FGT 67.58GB

Black.Hawk.Down.2001.EXTENDED.2160p.BluRay.REMUX.HEVC.DTS-HD.MA.TrueHD.7.1.Atmos.torrent

169.55 KB, 下载次数: 0, 下载积分: 蓝光币 -2

回复

使用道具 举报

懒得打字嘛,点击右侧快捷回复 【右侧内容,后台自定义】
您需要登录后才可以回帖 登录 | 立即加入

本版积分规则

Archiver|小黑屋| 蓝光电影网 |网站地图

Copyright © 2021 Comsenz Inc. Powered by 蓝光电影网

蓝光电影网

本站内容由用户自主分享和转载自互联网,转载目的在于传递更多信息,并不代表本网赞同其观点和对其真实性负责。

如有侵权、违反国家法律政策行为,请联系我们,我们会第一时间及时清除和处理!

举报反馈邮箱:[email protected]

快速回复 返回顶部 返回列表