找回密码

蓝光电影网

查看: 5|回复: 0

[2160p] 不可能的事/冰天奇迹 Breakthrough.2019.2160p.BluRay.x265.10bit.SDR.DTS-HD.MA.7.1-SWTYBLZ 36.97GB

[复制链接]
蓝光币
382
发表于 2019-7-21 03:52:54 | 显示全部楼层 |阅读模式


◎译  名 不成能的事 / 冰天奇迹 / 奇迹的冲破(港)
◎片  名 Breakthrough
◎年  代 2019
◎产  地 美国
◎类  别 剧情 / 列传
◎语  言 英语
◎上映日期 2019-04-17(美国)
◎IMDb评分  5.6/10 from 2606 users
◎IMDb链接  http://www.imdb.com/title/tt7083526
◎豆瓣评分 5.5/10 from 65 users
◎豆瓣链接 https://movie.douban.com/subject/30135924/
◎片  长 116分钟
◎导  演 罗斯安·道森 Roxann Dawson
◎编  剧 格兰特·尼波特 Grant Nieporte / 霍伊塞·史姑娘 Joyce Smith
◎主  演 克丽丝·梅斯 Chrissy Metz
      托弗·戈瑞斯 Topher Grace
      乔什·卢卡斯 Josh Lucas
      马塞尔·鲁伊斯 Marcel Ruiz
      丹尼斯·海斯伯特 Dennis Haysbert
      丽贝卡·斯塔巴 Rebecca Staab
      山姆·特拉梅尔 Sam Trammell
      麦克·柯尔特 Mike Colter
      艾丽·斯考比 Ali Skovbye

◎标  签 美国 | 2019 | 剧情 | 信仰 | 爱 | 奇迹 | 亲情 | 二十世纪福克斯
◎简  介  
  克丽丝·梅斯(《我们这一天》《美国可骇故事》)将主演新片《不成能的事》(The Impossible),Fox 2000建造。基于Joyce Smith所著自传《The Impossible: The Miraculous Story of a Mother’s Faith and Her Child’s Resurrection》,报告一个分歧平常的实在故事:Joyce14岁的儿子John在某个冬季掉进了密苏里州的一条冰河里,被宣布灭亡,经过Joyce的祈祷和信仰,1个小时后,John的心脏再次跳动了起来,16天今后,John不靠外力走出了医院,完全康复了。
罗斯安·道森(《美国谍梦》《纸牌屋》)执导,Grant Nieporte(《七磅》)改编剧本,3月温尼伯开拍。
  1. Video
  2. ID                                       : 1
  3. Format                                   : HEVC
  4. Format/Info                              : High Efficiency Video Coding
  5. Format profile                           : Main [email protected]@High
  6. Codec ID                                 : V_MPEGH/ISO/HEVC
  7. Duration                                 : 1 h 56 min
  8. Bit rate                                 : 39.9 Mb/s
  9. Width                                    : 3 840 pixels
  10. Height                                   : 1 608 pixels
  11. Display aspect ratio                     : 2.40:1
  12. Frame rate mode                          : Constant
  13. Frame rate                               : 23.976 (24000/1001) FPS
  14. Color space                              : YUV
  15. Chroma subsampling                       : 4:2:0
  16. Bit depth                                : 10 bits
  17. Bits/(Pixel*Frame)                       : 0.270
  18. Stream size                              : 32.4 GiB (88%)
  19. Title                                    : Breakthrough.2019.2160p.BluRay.x265.10bit.SDR.DTS-HD.MA.7.1-SWTYBLZ
  20. Writing library                          : x265 3.0ed72af837053:[Windows][GCC 8.2.0][64 bit] 10bit
  21. Encoding settings                        : cpuid=1111039 / frame-threads=16 / numa-pools=44,44 / wpp / no-pmode / no-pme / no-psnr / no-ssim / log-level=2 / input-csp=1 / input-res=3840x1608 / interlace=0 / total-frames=167214 / level-idc=51 / high-tier=1 / uhd-bd=0 / ref=3 / no-allow-non-conformance / repeat-headers / annexb / aud / hrd / info / hash=0 / no-temporal-layers / no-open-gop / min-keyint=1 / keyint=24 / gop-lookahead=0 / bframes=4 / b-adapt=2 / b-pyramid / bframe-bias=0 / rc-lookahead=25 / lookahead-slices=4 / scenecut=40 / radl=0 / no-splice / no-intra-refresh / ctu=64 / min-cu-size=8 / no-rect / no-amp / max-tu-size=32 / tu-inter-depth=1 / tu-intra-depth=1 / limit-tu=0 / rdoq-level=0 / dynamic-rd=0.00 / no-ssim-rd / signhide / no-tskip / nr-intra=0 / nr-inter=0 / no-constrained-intra / strong-intra-smoothing / max-merge=2 / limit-refs=3 / no-limit-modes / me=1 / subme=2 / merange=57 / temporal-mvp / weightp / no-weightb / no-analyze-src-pics / deblock=0:0 / no-sao / no-sao-non-deblock / rd=3 / no-early-skip / rskip / no-fast-intra / no-tskip-fast / no-cu-lossless / no-b-intra / no-splitrd-skip / rdpenalty=0 / psy-rd=2.00 / psy-rdoq=0.00 / no-rd-refine / no-lossless / cbqpoffs=0 / crqpoffs=0 / rc=crf / crf=16.0 / qcomp=0.60 / qpstep=4 / stats-write=0 / stats-read=0 / vbv-maxrate=160000 / vbv-bufsize=160000 / vbv-init=0.9 / crf-max=0.0 / crf-min=0.0 / ipratio=1.40 / pbratio=1.30 / aq-mode=1 / aq-strength=1.00 / cutree / zone-count=0 / no-strict-cbr / qg-size=32 / no-rc-grain / qpmax=69 / qpmin=0 / no-const-vbv / sar=1 / overscan=0 / videoformat=5 / range=0 / colorprim=2 / transfer=2 / colormatrix=2 / chromaloc=0 / display-window=0 / max-cll=0,0 / min-luma=0 / max-luma=1023 / log2-max-poc-lsb=8 / vui-timing-info / vui-hrd-info / slices=1 / opt-qp-pps / opt-ref-list-length-pps / no-multi-pass-opt-rps / scenecut-bias=0.05 / no-opt-cu-delta-qp / no-aq-motion / no-hdr / no-hdr-opt / no-dhdr10-opt / no-idr-recovery-sei / analysis-reuse-level=5 / scale-factor=0 / refine-intra=0 / refine-inter=0 / refine-mv=0 / refine-ctu-distortion=0 / no-limit-sao / ctu-info=0 / no-lowpass-dct / refine-analysis-type=0 / copy-pic=1 / max-ausize-factor=1.0 / no-dynamic-refine / no-single-sei / no-hevc-aq / qp-adaptation-range=1.00
  22. Default                                  : Yes
  23. Forced                                   : No
  24. Audio #1
  25. ID                                       : 2
  26. Format                                   : DTS XLL
  27. Format/Info                              : Digital Theater Systems
  28. Commercial name                          : DTS-HD Master Audio
  29. Codec ID                                 : A_DTS
  30. Duration                                 : 1 h 56 min
  31. Bit rate mode                            : Variable
  32. Bit rate                                 : 4 633 kb/s
  33. Channel(s)                               : 8 channels
  34. Channel layout                           : C L R LFE Lb Rb Lss Rss
  35. Sampling rate                            : 48.0 kHz
  36. Frame rate                               : 93.750 FPS (512 SPF)
  37. Bit depth                                : 24 bits
  38. Compression mode                         : Lossless
  39. Stream size                              : 3.76 GiB (10%)
  40. Title                                    : Breakthrough.2019.2160p.BluRay.x265.10bit.SDR.DTS-HD.MA.7.1-SWTYBLZ
  41. Language                                 : English
  42. Default                                  : Yes
  43. Forced                                   : No
  44. Audio #2
  45. ID                                       : 3
  46. Format                                   : AC-3
  47. Format/Info                              : Audio Coding 3
  48. Commercial name                          : Dolby Digital
  49. Codec ID                                 : A_AC3
  50. Duration                                 : 1 h 56 min
  51. Bit rate mode                            : Constant
  52. Bit rate                                 : 640 kb/s
  53. Channel(s)                               : 6 channels
  54. Channel layout                           : L R C LFE Ls Rs
  55. Sampling rate                            : 48.0 kHz
  56. Frame rate                               : 31.250 FPS (1536 SPF)
  57. Bit depth                                : 16 bits
  58. Compression mode                         : Lossy
  59. Stream size                              : 532 MiB (1%)
  60. Title                                    : Breakthrough.2019.2160p.BluRay.x265.10bit.SDR.DTS-HD.MA.7.1-SWTYBLZ
  61. Language                                 : English
  62. Service kind                             : Complete Main
  63. Default                                  : No
  64. Forced                                   : No
  65. Text #1
  66. ID                                       : 4
  67. Format                                   : UTF-8
  68. Codec ID                                 : S_TEXT/UTF8
  69. Codec ID/Info                            : UTF-8 Plain Text
  70. Duration                                 : 1 h 53 min
  71. Bit rate                                 : 54 b/s
  72. Count of elements                        : 1684
  73. Stream size                              : 45.5 KiB (0%)
  74. Title                                    : English-SRT
  75. Language                                 : English
  76. Default                                  : Yes
  77. Forced                                   : No
  78. Text #2
  79. ID                                       : 5
  80. Format                                   : UTF-8
  81. Codec ID                                 : S_TEXT/UTF8
  82. Codec ID/Info                            : UTF-8 Plain Text
  83. Duration                                 : 1 h 54 min
  84. Bit rate                                 : 68 b/s
  85. Count of elements                        : 2069
  86. Stream size                              : 57.1 KiB (0%)
  87. Title                                    : English-SDH-SRT
  88. Language                                 : English
  89. Default                                  : No
  90. Forced                                   : No
  91. Text #3
  92. ID                                       : 6
  93. Format                                   : PGS
  94. Muxing mode                              : zlib
  95. Codec ID                                 : S_HDMV/PGS
  96. Codec ID/Info                            : Picture based subtitle format used on BDs/HD-DVDs
  97. Duration                                 : 1 h 54 min
  98. Bit rate                                 : 74.4 kb/s
  99. Count of elements                        : 4138
  100. Stream size                              : 60.9 MiB (0%)
  101. Title                                    : Englsih-PGS
  102. Language                                 : English
  103. Default                                  : No
  104. Forced                                   : No
  105. Text #4
  106. ID                                       : 7
  107. Format                                   : PGS
  108. Muxing mode                              : zlib
  109. Codec ID                                 : S_HDMV/PGS
  110. Codec ID/Info                            : Picture based subtitle format used on BDs/HD-DVDs
  111. Duration                                 : 1 h 55 min
  112. Bit rate                                 : 58.2 kb/s
  113. Count of elements                        : 3336
  114. Stream size                              : 48.0 MiB (0%)
  115. Title                                    : Spanish-PGS
  116. Language                                 : Spanish
  117. Default                                  : No
  118. Forced                                   : No
  119. Text #5
  120. ID                                       : 8
  121. Format                                   : PGS
  122. Muxing mode                              : zlib
  123. Codec ID                                 : S_HDMV/PGS
  124. Codec ID/Info                            : Picture based subtitle format used on BDs/HD-DVDs
  125. Duration                                 : 1 h 55 min
  126. Bit rate                                 : 53.9 kb/s
  127. Count of elements                        : 3222
  128. Stream size                              : 44.4 MiB (0%)
  129. Title                                    : French-PGS
  130. Language                                 : French
  131. Default                                  : No
  132. Forced                                   : No
  133. Menu
  134. 00:00:00.000                             : en:Chapter 01
  135. 00:04:29.435                             : en:Chapter 02
  136. 00:08:12.533                             : en:Chapter 03
  137. 00:15:41.106                             : en:Chapter 04
  138. 00:22:07.242                             : en:Chapter 05
  139. 00:24:59.915                             : en:Chapter 06
  140. 00:30:03.635                             : en:Chapter 07
  141. 00:35:26.124                             : en:Chapter 08
  142. 00:40:45.401                             : en:Chapter 09
  143. 00:45:39.194                             : en:Chapter 10
  144. 00:49:40.686                             : en:Chapter 11
  145. 00:55:18.064                             : en:Chapter 12
  146. 00:59:48.626                             : en:Chapter 13
  147. 01:04:34.579                             : en:Chapter 14
  148. 01:08:44.286                             : en:Chapter 15
  149. 01:12:40.105                             : en:Chapter 16
  150. 01:18:37.003                             : en:Chapter 17
  151. 01:26:36.316                             : en:Chapter 18
  152. 01:31:12.925                             : en:Chapter 19
  153. 01:37:36.809                             : en:Chapter 20
  154. 01:41:48.644                             : en:Chapter 21
  155. 01:45:39.291                             : en:Chapter 22
  156. 01:48:00.849                             : en:Chapter 23
  157. 01:51:55.583                             : en:Chapter 24
复制代码










                                       
                                       

                                       
                                       
                                       




回复

使用道具 举报

懒得打字嘛,点击右侧快捷回复 【右侧内容,后台自定义】
您需要登录后才可以回帖 登录 | 立即加入

本版积分规则

Archiver|小黑屋| 蓝光电影网 |网站地图

Copyright © 2021 Comsenz Inc. Powered by 蓝光电影网

蓝光电影网

本站内容由用户自主分享和转载自互联网,转载目的在于传递更多信息,并不代表本网赞同其观点和对其真实性负责。

如有侵权、违反国家法律政策行为,请联系我们,我们会第一时间及时清除和处理!

举报反馈邮箱:[email protected]

快速回复 返回顶部 返回列表