找回密码

蓝光电影网

查看: 13|回复: 0

[剧情] 洩密者們 The.Leakers.2018.CHINESE.1080p.BluRay.x264.DD5.1-CHD 14.15GB

[复制链接]
蓝光币
733
发表于 2020-11-8 11:06:27 | 显示全部楼层 |阅读模式


◎译  名 保密者/The Leakers/保密者们
◎片  名 洩密者們
◎年  代 2018
◎产  地 中国香港
◎类  别 剧情 / 犯罪
◎语  言 粤语,汉语普通话
◎上映日期 2018-06-15(中国大陆) / 2018-06-21(中国香港)
◎IMDb评分  5.3/10 from 358 users
◎IMDb链接  https://www.imdb.com/title/tt8490838/
◎豆瓣评分 5.4/10 from 25769 users
◎豆瓣链接 https://movie.douban.com/subject/27195080/
◎片  长 100分钟
◎导  演 邱礼涛 Herman Yau
◎编  剧 李敏 Erica Lee / 李昇 Eric Lee
◎主  演 吴镇宇 Francis Ng
       张智霖 Julian Cheung
       佘诗曼 Charmaine Sheh
       周秀娜 Chrissie Chaw
       郑则仕 Kent Cheng
       刘浩龙 Wilfred Lau
       张继聪 Louis Cheung
       李灿森 Sam Lee
       卫诗雅 Michelle Wai
       杨柳青 Wiyona Yeung
       灰熊 Kumer So
       林嘉华 Dominic Lam
       谭小环 Halina Tam
       庞景峰 Andrew Pong
       叶运强 Wan-Keung Yip
◎标  签 香港 | 犯罪 | 警匪 | 2018 | 悬疑 | 港影 | 行动 | 人性
◎简  介


  马来西亚爆发奥秘沾抱病,当地药业公司AMANAH研讨的殊效药MD5成为救济病患的神丹妙药。可是一向跟踪报道该疾病的记者宋丹文意外灭亡,随着AMANAH总裁张日善(郑则仕 饰)的儿子在办公室自杀身亡。经警方观察,张令郎纯系他杀。与此同时,张令郎的妻子彭珍美(周秀娜 饰)奥秘跑到香港,她随身照顾的机密引发多方势力的争抢。香港差人王大伟(吴镇宇 饰)与马来西亚皇家差人警长李永勤(张智霖 饰)讨论,辅佐观察这一系列案件。未几后,王大伟收到一段视频,视频录制者自称“保密者”控告AMANAH是绝命病毒的始作俑者,而张日善的二儿子更落到他们手中。
  
  与死神争分夺秒,李永勤和王大伟展开夺命清查……
◎获奖情况
  第21届上海国际电影节 ?(2018)
  电影频道传媒大奖(提名) 邱礼涛
  1. Video
  2. ID                                       : 1
  3. Format                                   : AVC
  4. Format/Info                              : Advanced Video Codec
  5. Format profile                           : [email protected]
  6. Format settings                          : CABAC / 4 Ref Frames
  7. Format settings, CABAC                   : Yes
  8. Format settings, ReFrames                : 4 frames
  9. Codec ID                                 : V_MPEG4/ISO/AVC
  10. Duration                                 : 1 h 42 min
  11. Bit rate                                 : 18.4 Mb/s
  12. Width                                    : 1 920 pixels
  13. Height                                   : 806 pixels
  14. Display aspect ratio                     : 2.40:1
  15. Frame rate mode                          : Constant
  16. Frame rate                               : 24.000 FPS
  17. Color space                              : YUV
  18. Chroma subsampling                       : 4:2:0
  19. Bit depth                                : 8 bits
  20. Scan type                                : Progressive
  21. Bits/(Pixel*Frame)                       : 0.495
  22. Stream size                              : 13.2 GiB (93%)
  23. Writing library                          : x264 core 155 r2867+74 66b5600 t_mod_Custom_2 [[email protected] X86_64]
  24. Encoding settings                        : cabac=1 / ref=4 / deblock=1:-3:-3 / analyse=0x3:0x113 / me=umh / subme=10 / psy=1 / fade_compensate=0.00 / psy_rd=0.90:0.10 / mixed_ref=1 / me_range=48 / chroma_me=1 / trellis=2 / 8x8dct=1 / cqm=0 / deadzone=21,11 / fast_pskip=0 / chroma_qp_offset=-2 / threads=18 / lookahead_threads=3 / sliced_threads=0 / nr=0 / decimate=1 / interlaced=0 / bluray_compat=0 / constrained_intra=0 / fgo=0 / bframes=8 / b_pyramid=2 / b_adapt=2 / b_bias=0 / direct=3 / weightb=1 / open_gop=0 / weightp=2 / keyint=250 / keyint_min=24 / scenecut=40 / intra_refresh=0 / rc_lookahead=40 / rc=crf / mbtree=0 / crf=20.0000 / qcomp=0.70 / qpmin=0:0:0 / qpmax=69:69:69 / qpstep=4 / vbv_maxrate=35000 / vbv_bufsize=35000 / crf_max=0.0 / nal_hrd=none / filler=0 / ip_ratio=1.40 / pb_ratio=1.30 / aq=3:0.90 / aq-sensitivity=10.00 / aq-factor=1.00:1.00:1.00 / aq2=0 / aq3=2:[0.50:0.50]:[0.50:0.50]:[0.50:0.50]:[0.50:0.50] / aq3-sensitivity=10.00 / aq3-factor=[1.00:1.00]:[1.00:1.00]:[1.00:1.00] / aq3-boundary=192:64:24
  25. Language                                 : Chinese
  26. Default                                  : Yes
  27. Forced                                   : No
  28. Color range                              : Limited
  29. Matrix coefficients                      : BT.709
  30. Audio #1
  31. ID                                       : 2
  32. Format                                   : AC-3
  33. Format/Info                              : Audio Coding 3
  34. Codec ID                                 : A_AC3
  35. Duration                                 : 1 h 42 min
  36. Bit rate mode                            : Constant
  37. Bit rate                                 : 640 kb/s
  38. Channel(s)                               : 6 channels
  39. Channel positions                        : Front: L C R, Side: L R, LFE
  40. Sampling rate                            : 48.0 kHz
  41. Frame rate                               : 31.250 FPS (1536 SPF)
  42. Bit depth                                : 16 bits
  43. Compression mode                         : Lossy
  44. Stream size                              : 470 MiB (3%)
  45. Language                                 : Chinese
  46. Service kind                             : Complete Main
  47. Default                                  : Yes
  48. Forced                                   : No
  49. Audio #2
  50. ID                                       : 3
  51. Format                                   : AC-3
  52. Format/Info                              : Audio Coding 3
  53. Codec ID                                 : A_AC3
  54. Duration                                 : 1 h 42 min
  55. Bit rate mode                            : Constant
  56. Bit rate                                 : 640 kb/s
  57. Channel(s)                               : 6 channels
  58. Channel positions                        : Front: L C R, Side: L R, LFE
  59. Sampling rate                            : 48.0 kHz
  60. Frame rate                               : 31.250 FPS (1536 SPF)
  61. Bit depth                                : 16 bits
  62. Compression mode                         : Lossy
  63. Stream size                              : 470 MiB (3%)
  64. Language                                 : Chinese
  65. Service kind                             : Complete Main
  66. Default                                  : No
  67. Forced                                   : No
  68. Text #1
  69. ID                                       : 4
  70. Format                                   : PGS
  71. Muxing mode                              : zlib
  72. Codec ID                                 : S_HDMV/PGS
  73. Codec ID/Info                            : Picture based subtitle format used on BDs/HD-DVDs
  74. Duration                                 : 1 h 36 min
  75. Bit rate                                 : 38.7 kb/s
  76. Count of elements                        : 1984
  77. Stream size                              : 26.7 MiB (0%)
  78. Language                                 : Chinese
  79. Default                                  : Yes
  80. Forced                                   : No
  81. Text #2
  82. ID                                       : 5
  83. Format                                   : PGS
  84. Muxing mode                              : zlib
  85. Codec ID                                 : S_HDMV/PGS
  86. Codec ID/Info                            : Picture based subtitle format used on BDs/HD-DVDs
  87. Duration                                 : 1 h 35 min
  88. Bit rate                                 : 39.8 kb/s
  89. Count of elements                        : 1979
  90. Stream size                              : 27.1 MiB (0%)
  91. Language                                 : Chinese
  92. Default                                  : No
  93. Forced                                   : No
  94. Menu
  95. 00:00:00.000                             : en:00:00:00.000
  96. 00:08:54.917                             : en:00:08:54.917
  97. 00:16:41.333                             : en:00:16:41.333
  98. 00:25:53.583                             : en:00:25:53.583
  99. 00:33:45.583                             : en:00:33:45.583
  100. 00:42:34.417                             : en:00:42:34.417
  101. 00:52:55.667                             : en:00:52:55.667
  102. 00:59:50.458                             : en:00:59:50.458
  103. 01:08:23.417                             : en:01:08:23.417
  104. 01:17:30.208                             : en:01:17:30.208
  105. 01:26:12.708                             : en:01:26:12.708
  106. 01:35:03.250                             : en:01:35:03.250
复制代码






                                       
                                       

                                       
                                       
                                       




回复

使用道具 举报

懒得打字嘛,点击右侧快捷回复 【右侧内容,后台自定义】
您需要登录后才可以回帖 登录 | 立即加入

本版积分规则

Archiver|小黑屋| 蓝光电影网 |网站地图

Copyright © 2021 Comsenz Inc. Powered by 蓝光电影网

蓝光电影网

本站内容由用户自主分享和转载自互联网,转载目的在于传递更多信息,并不代表本网赞同其观点和对其真实性负责。

如有侵权、违反国家法律政策行为,请联系我们,我们会第一时间及时清除和处理!

举报反馈邮箱:[email protected]

快速回复 返回顶部 返回列表