找回密码

蓝光电影网

查看: 74|回复: 0

[剧情] 弹簧刀姐妹 Switchblade.Sisters.1975.1080p.BluRay.x264-PSYCHD 8.74GB

[复制链接]
蓝光币
730
发表于 2020-11-8 10:36:29 | 显示全部楼层 |阅读模式


◎译  名 弹簧刀姐妹/Playgirl Gang/The Jezebels
◎片  名 Switchblade Sisters
◎年  代 1975
◎产  地 美国
◎类  别 剧情 / 行动 / 犯罪
◎语  言 英语
◎上映日期 1975-05(美国) / 1984-08-25(达拉斯国际电影节)
◎IMDb评分  6.6/10 from 3161 users
◎IMDb链接  https://www.imdb.com/title/tt0073778/
◎豆瓣评分 /10 from 0 users
◎豆瓣链接 https://movie.douban.com/subject/2342445/
◎片  长 91 分钟
◎导  演 杰克·希尔 Jack Hill
◎编  剧 杰克·希尔 Jack Hill
◎主  演 珍妮丝·卡门 Janice Karman
       唐·斯达克 Don Stark
       约翰·沃德斯塔德 John Voldstad
       Frances E. Williams
       Robbie Lee
       凯特·默塔格 Kate Murtagh
       Joanne Nail
       鲍勃·米诺 Bob Minor
       Robbie Lee
       罗伊·恩格尔 Roy Engel
       玛琳·克拉克 Marlene Clark
       Kitty Bruce
       Ninette Bravo
       贝蒂·麦奎尔 Betty McGuire
◎标  签 美国 | 昆汀保举 | CULT | Jack_Hill | 美国电影 | 犯罪 | 1975 | 行动
◎简  介


  The "Dagger Debs" are a gang of snarling girls, and Maggie is their newest member. Lace, the ever tooth-gritting leader, befriends her but soon has doubts --it seems Lace's man, Dominic, head of the "Silver Daggers" fancies the new recruit. Lace struggles to keep control of the Debs, and a handle on Nick, as they face off against the rival gang of pushers lead by Crabs.
  
  The Silver Daggers are a gang of young hoods who control an inner-city high school, where they sell drugs and sex to the student body and fight anyone who gets in their way. The Daggers have a ladies' auxiliary, The Dagger Debs, who rumble just as hard as the men, but one day chief Dagger Deb Lace meets her match in Maggie, a new kid who won't back down. When a scuffle lands Maggie and the Debs in jail for the night, Maggie comes to Lace's rescue, and Maggie becomes Lace's new right-hand woman. However, fellow Deb Patch is jealous of Maggie's friendship with Lace, and begins spinning a web of deceit to destroy Lace's trust in the new deb. In the midst of the infighting, the Silver Daggers find their turf challenged by a rival gang who pose as a community action team, and the Debs join forces with a revolutionary political group.
  1. Video
  2. ID                                       : 1
  3. Format                                   : AVC
  4. Format/Info                              : Advanced Video Codec
  5. Format profile                           : [email protected]
  6. Format settings                          : CABAC / 4 Ref Frames
  7. Format settings, CABAC                   : Yes
  8. Format settings, Reference frames        : 4 frames
  9. Codec ID                                 : V_MPEG4/ISO/AVC
  10. Duration                                 : 1 h 30 min
  11. Bit rate                                 : 13.0 Mb/s
  12. Width                                    : 1 920 pixels
  13. Height                                   : 1 040 pixels
  14. Display aspect ratio                     : 1.85:1
  15. Frame rate mode                          : Constant
  16. Frame rate                               : 23.976 (24000/1001/189150) FPS
  17. Color space                              : YUV
  18. Chroma subsampling                       : 4:2:0
  19. Bit depth                                : 8 bits
  20. Scan type                                : Progressive
  21. Bits/(Pixel*Frame)                       : 0.272
  22. Stream size                              : 8.08 GiB (92%)
  23. Writing library                          : x264 core 148 r2665 a01e339
  24. Encoding settings                        : cabac=1 / ref=4 / deblock=1:-3:-3 / analyse=0x3:0x113 / me=umh / subme=8 / psy=1 / psy_rd=1.15:0.00 / mixed_ref=1 / me_range=32 / chroma_me=1 / trellis=1 / 8x8dct=1 / cqm=0 / deadzone=21,11 / fast_pskip=1 / chroma_qp_offset=-2 / threads=24 / lookahead_threads=4 / sliced_threads=0 / nr=0 / decimate=1 / interlaced=0 / bluray_compat=0 / constrained_intra=0 / bframes=3 / b_pyramid=2 / b_adapt=2 / b_bias=0 / direct=3 / weightb=1 / open_gop=0 / weightp=2 / keyint=240 / keyint_min=24 / scenecut=40 / intra_refresh=0 / rc_lookahead=50 / rc=2pass / mbtree=1 / bitrate=13040 / ratetol=1.0 / qcomp=0.60 / qpmin=0 / qpmax=69 / qpstep=4 / cplxblur=20.0 / qblur=0.5 / ip_ratio=1.40 / aq=3:0.80
  25. Language                                 : English
  26. Default                                  : Yes
  27. Forced                                   : No
  28. Statistics Tags Issue                    : no_variable_data 1970-01-01 00:00:00 / no_variable_data 2010-02-22 21:41:29
  29. FromStats_BitRate                        : 13037881
  30. FromStats_Duration                       : 01:30:37.933000000
  31. FromStats_FrameCount                     : 130380
  32. FromStats_StreamSize                     : 8862390679

  33. Audio
  34. ID                                       : 2
  35. Format                                   : DTS
  36. Format/Info                              : Digital Theater Systems
  37. Codec ID                                 : A_DTS
  38. Duration                                 : 1 h 30 min
  39. Bit rate mode                            : Constant
  40. Bit rate                                 : 768 kb/s
  41. Channel(s)                               : 1 channel
  42. Channel layout                           : C
  43. Sampling rate                            : 48.0 kHz
  44. Frame rate                               : 93.750 FPS (512 SPF)
  45. Bit depth                                : 24 bits
  46. Compression mode                         : Lossy
  47. Stream size                              : 498 MiB (6%)
  48. Language                                 : English
  49. Default                                  : Yes
  50. Forced                                   : No
  51. Statistics Tags Issue                    : no_variable_data 1970-01-01 00:00:00 / no_variable_data 2010-02-22 21:41:29
  52. FromStats_BitRate                        : 767999
  53. FromStats_Duration                       : 01:30:35.958000000
  54. FromStats_FrameCount                     : 509621
  55. FromStats_StreamSize                     : 521851904

  56. Text
  57. ID                                       : 3
  58. Format                                   : UTF-8
  59. Codec ID                                 : S_TEXT/UTF8
  60. Codec ID/Info                            : UTF-8 Plain Text
  61. Language                                 : English
  62. Default                                  : No
  63. Forced                                   : No
  64. Statistics Tags Issue                    : no_variable_data 1970-01-01 00:00:00 / no_variable_data 2010-02-22 21:41:29
  65. FromStats_BitRate                        : 57
  66. FromStats_Duration                       : 01:28:08.199000000
  67. FromStats_FrameCount                     : 1134
  68. FromStats_StreamSize                     : 37739

  69. Menu
  70. 00:00:00.000                             : en:00:00:00.000
  71. 00:05:50.308                             : en:00:05:50.308
  72. 00:18:03.249                             : en:00:18:03.249
  73. 00:30:44.885                             : en:00:30:44.885
  74. 00:46:08.224                             : en:00:46:08.224
  75. 00:58:08.902                             : en:00:58:08.902
  76. 01:11:12.894                             : en:01:11:12.894
  77. 01:28:59.501                             : en:01:28:59.501
复制代码






                                       
                                       

                                       
                                       
                                       




回复

使用道具 举报

懒得打字嘛,点击右侧快捷回复 【右侧内容,后台自定义】
您需要登录后才可以回帖 登录 | 立即加入

本版积分规则

Archiver|小黑屋| 蓝光电影网 |网站地图

Copyright © 2021 Comsenz Inc. Powered by 蓝光电影网

蓝光电影网

本站内容由用户自主分享和转载自互联网,转载目的在于传递更多信息,并不代表本网赞同其观点和对其真实性负责。

如有侵权、违反国家法律政策行为,请联系我们,我们会第一时间及时清除和处理!

举报反馈邮箱:[email protected]

快速回复 返回顶部 返回列表