找回密码

蓝光电影网

查看: 13|回复: 0

[剧情] 烈日迷踪 Lost.in.the.Sun.2015.1080p.BluRay.x264-PSYCHD 6.55GB

[复制链接]
蓝光币
733
发表于 2020-11-8 10:24:24 | 显示全部楼层 |阅读模式


◎译  名 烈日迷踪
◎片  名 Lost in the Sun
◎年  代 2015
◎产  地 美国
◎类  别 剧情 / 行动
◎语  言 英语
◎上映日期 2015-11-06(美国)
◎IMDb评分  6/10 from 3636 users
◎IMDb链接  https://www.imdb.com/title/tt3593046/
◎豆瓣评分 6.6/10 from 1875 users
◎豆瓣链接 https://movie.douban.com/subject/25856265/
◎片  长 95分钟
◎导  演 特雷·尼尔森 Trey Nelson
◎编  剧 特雷·尼尔森 Trey Nelson
◎主  演 乔什·杜哈明 Josh Duhamel
       乔什·维金斯 Josh Wiggins
       琳恩·柯林斯 Lynn Collins
       艾玛·福尔曼 Emma Fuhrmann
       克丽丝汀·米勒 Kristin Miller White
       拉里·杰克·唐森 Larry Jack Dotson
       阿尔·艾泰 Al Hayter
◎标  签 公路 | 美国 | 剧情 | 犯罪 | 长大 | 亲情 | 2015 | 人性
◎简  介


  故事报告了约翰(乔什·杜哈明 Josh Duhamel 饰),一位时运不济的小骗子,偶然地获得了路易斯(乔什·维金斯 Josh Wiggins 饰),一个刚刚成为孤儿的小男孩的帮助,他们组成了同伴,在前往路易斯外婆家的旅途中建立起了一种强大的拘束……
  1. Video
  2. ID                                       : 1
  3. Format                                   : AVC
  4. Format/Info                              : Advanced Video Codec
  5. Format profile                           : [email protected]
  6. Format settings                          : CABAC / 5 Ref Frames
  7. Format settings, CABAC                   : Yes
  8. Format settings, Reference frames        : 5 frames
  9. Codec ID                                 : V_MPEG4/ISO/AVC
  10. Duration                                 : 1 h 35 min
  11. Bit rate                                 : 8 328 kb/s
  12. Width                                    : 1 920 pixels
  13. Height                                   : 808 pixels
  14. Display aspect ratio                     : 2.40:1
  15. Frame rate mode                          : Constant
  16. Frame rate                               : 23.976 (24000/1001/189150) FPS
  17. Color space                              : YUV
  18. Chroma subsampling                       : 4:2:0
  19. Bit depth                                : 8 bits
  20. Scan type                                : Progressive
  21. Bits/(Pixel*Frame)                       : 0.224
  22. Stream size                              : 5.42 GiB (83%)
  23. Writing library                          : x264 core 148 r2638 7599210
  24. Encoding settings                        : cabac=1 / ref=5 / deblock=1:-3:-3 / analyse=0x3:0x113 / me=umh / subme=8 / psy=1 / psy_rd=1.00:0.00 / mixed_ref=1 / me_range=16 / chroma_me=1 / trellis=1 / 8x8dct=1 / cqm=0 / deadzone=21,11 / fast_pskip=1 / chroma_qp_offset=-2 / threads=24 / lookahead_threads=4 / sliced_threads=0 / nr=0 / decimate=1 / interlaced=0 / bluray_compat=0 / constrained_intra=0 / bframes=3 / b_pyramid=2 / b_adapt=2 / b_bias=0 / direct=3 / weightb=1 / open_gop=0 / weightp=2 / keyint=240 / keyint_min=24 / scenecut=40 / intra_refresh=0 / rc_lookahead=50 / rc=2pass / mbtree=1 / bitrate=8328 / ratetol=1.0 / qcomp=0.60 / qpmin=0 / qpmax=69 / qpstep=4 / cplxblur=20.0 / qblur=0.5 / ip_ratio=1.40 / aq=1:1.00
  25. Language                                 : English
  26. Default                                  : Yes
  27. Forced                                   : No
  28. Statistics Tags Issue                    : no_variable_data 1970-01-01 00:00:00 / no_variable_data 2010-02-22 21:41:29
  29. FromStats_BitRate                        : 8320839
  30. FromStats_Duration                       : 01:35:26.179000000
  31. FromStats_FrameCount                     : 137291
  32. FromStats_StreamSize                     : 5955827320

  33. Audio
  34. ID                                       : 2
  35. Format                                   : DTS
  36. Format/Info                              : Digital Theater Systems
  37. Codec ID                                 : A_DTS
  38. Duration                                 : 1 h 35 min
  39. Bit rate mode                            : Constant
  40. Bit rate                                 : 1 509 kb/s
  41. Channel(s)                               : 6 channels
  42. Channel layout                           : C L R Ls Rs LFE
  43. Sampling rate                            : 48.0 kHz
  44. Frame rate                               : 93.750 FPS (512 SPF)
  45. Bit depth                                : 24 bits
  46. Compression mode                         : Lossy
  47. Stream size                              : 1.01 GiB (15%)
  48. Language                                 : English
  49. Default                                  : Yes
  50. Forced                                   : No
  51. Statistics Tags Issue                    : no_variable_data 1970-01-01 00:00:00 / no_variable_data 2010-02-22 21:41:29
  52. FromStats_BitRate                        : 1508999
  53. FromStats_Duration                       : 01:35:26.059000000
  54. FromStats_FrameCount                     : 536818
  55. FromStats_StreamSize                     : 1080077816

  56. Text #1
  57. ID                                       : 3
  58. Format                                   : UTF-8
  59. Codec ID                                 : S_TEXT/UTF8
  60. Codec ID/Info                            : UTF-8 Plain Text
  61. Language                                 : English
  62. Default                                  : No
  63. Forced                                   : No
  64. Statistics Tags Issue                    : no_variable_data 1970-01-01 00:00:00 / no_variable_data 2010-02-22 21:41:29
  65. FromStats_BitRate                        : 42
  66. FromStats_Duration                       : 01:28:59.458000000
  67. FromStats_FrameCount                     : 1039
  68. FromStats_StreamSize                     : 28477

  69. Text #2
  70. ID                                       : 4
  71. Format                                   : UTF-8
  72. Codec ID                                 : S_TEXT/UTF8
  73. Codec ID/Info                            : UTF-8 Plain Text
  74. Title                                    : SDH
  75. Language                                 : English
  76. Default                                  : No
  77. Forced                                   : No
  78. Statistics Tags Issue                    : no_variable_data 1970-01-01 00:00:00 / no_variable_data 2010-02-22 21:41:29
  79. FromStats_BitRate                        : 44
  80. FromStats_Duration                       : 01:28:59.458000000
  81. FromStats_FrameCount                     : 1090
  82. FromStats_StreamSize                     : 29429

  83. Menu
  84. 00:00:00.000                             : en:00:00:00.000
  85. 00:03:59.739                             : en:00:03:59.739
  86. 00:10:46.604                             : en:00:10:46.604
  87. 00:18:35.906                             : en:00:18:35.906
  88. 00:23:51.722                             : en:00:23:51.722
  89. 00:30:17.941                             : en:00:30:17.941
  90. 00:34:59.681                             : en:00:34:59.681
  91. 00:42:24.459                             : en:00:42:24.459
  92. 00:47:25.176                             : en:00:47:25.176
  93. 00:54:21.717                             : en:00:54:21.717
  94. 00:59:55.008                             : en:00:59:55.008
  95. 01:05:44.315                             : en:01:05:44.315
  96. 01:11:56.354                             : en:01:11:56.354
  97. 01:18:22.573                             : en:01:18:22.573
  98. 01:23:39.097                             : en:01:23:39.097
  99. 01:30:19.998                             : en:01:30:19.998
复制代码






                                       
                                       

                                       
                                       
                                       




回复

使用道具 举报

懒得打字嘛,点击右侧快捷回复 【右侧内容,后台自定义】
您需要登录后才可以回帖 登录 | 立即加入

本版积分规则

Archiver|小黑屋| 蓝光电影网 |网站地图

Copyright © 2021 Comsenz Inc. Powered by 蓝光电影网

蓝光电影网

本站内容由用户自主分享和转载自互联网,转载目的在于传递更多信息,并不代表本网赞同其观点和对其真实性负责。

如有侵权、违反国家法律政策行为,请联系我们,我们会第一时间及时清除和处理!

举报反馈邮箱:[email protected]

快速回复 返回顶部 返回列表