找回密码

蓝光电影网

查看: 21|回复: 0

[剧情] 农民宇航员 The.Astronaut.Farmer.2006.1080p.BluRay.x264.DD5.1-FGT 7.95GB

[复制链接]
蓝光币
623
发表于 2020-11-8 09:14:02 | 显示全部楼层 |阅读模式


◎译  名 农民宇航员
◎片  名 The Astronaut Farmer
◎年  代 2006
◎产  地 美国
◎类  别 剧情 / 冒险
◎语  言 英语,西班牙语
◎上映日期 2007-02-23
◎IMDb评分  6.3/10 from 21967 users
◎IMDb链接  https://www.imdb.com/title/tt0469263/
◎豆瓣评分 7.5/10 from 2383 users
◎豆瓣链接 https://movie.douban.com/subject/1855250/
◎片  长 104 分钟
◎导  演 麦克·鲍力施 Michael Polish
◎编  剧 马克·鲍力施 Mark Polish / 麦克·鲍力施 Michael Polish
◎主  演 比利·鲍伯·松顿 Billy Bob Thornton
       麦克斯·泰瑞奥 Max Thieriot
       维吉妮娅·马德森 Virginia Madsen
       斯嘉丽·麦卡利斯特 Scarlett McAlister
       索尔·洛佩斯 Sal Lopez
       绮尔斯腾·瓦伦 Kiersten Warren
       布鲁斯·邓恩 Bruce Dern
       瑞克·欧弗顿 Rick Overton
       强·格瑞斯 Jon Gries
       理查德·埃德森 Richard Edson
       杰·雷诺 Jay Leno
       布鲁斯·威利斯 Bruce Willis
       艾达·达文什 Ida Darvish
       马克·鲍力施 Mark Polish
       野村祐人 Eugene Nomura
       格拉汉姆·贝克尔 Graham Beckel
       马绍尔·贝尔 Marshall Bell
       J·K·西蒙斯 J.K. Simmons
       本杰明·佩特里 Benjamin Petry
       Vikrum Shah
       Lucas Ruggles
       大卫·苏利文 David Sullivan
       Kathleen Arc
       伊莉斯·埃伯利 Elise Eberle
       George McKelvey
       James Blackburn
       蒂姆·布雷克·尼尔森 Tim Blake Nelson
       朱丽叶·怀特 Julie White
◎标  签 励志 | 美国 | 胡想 | 美国电影 | 剧情 | 亲情 | 2007 | 电影
◎简  介


  已经在美国空军退役、获得航天工程学学位的查尔斯?法默(比利?鲍伯?松顿 Billy Bob Thornton 饰)原本有希望成为美国宇航员,但昔时突发变故令他没能实现儿时就立下的航天胡想。退役后的法默闭门建造自己的火箭,要全凭一己之力飞向太空。穿着宇航服出门的法默早已是镇上的名流,但没人相信他可以成功,同时银行方面因他有力了偿存款,频仍的以罚没他的房产与地盘相威胁。法默造火箭引发了FBI的留意并被制止继续建造,法默则联系了媒体为自己造势,希望冲破政府的阻止。法默的计划始终获得妻子以及一子两女、老岳父的支持,一家人和几个好友赐与了他各方面的帮助,终究,法默掉臂政府威胁,摁下了火箭发射的按钮……
  1. Video
  2. ID                                       : 1
  3. Format                                   : AVC
  4. Format/Info                              : Advanced Video Codec
  5. Format profile                           : [email protected]
  6. Format settings                          : CABAC / 6 Ref Frames
  7. Format settings, CABAC                   : Yes
  8. Format settings, Reference frames        : 6 frames
  9. Codec ID                                 : V_MPEG4/ISO/AVC
  10. Duration                                 : 1 h 44 min
  11. Bit rate                                 : 10.5 Mb/s
  12. Width                                    : 1 920 pixels
  13. Height                                   : 792 pixels
  14. Display aspect ratio                     : 2.40:1
  15. Frame rate mode                          : Constant
  16. Frame rate                               : 23.976 FPS
  17. Color space                              : YUV
  18. Chroma subsampling                       : 4:2:0
  19. Bit depth                                : 8 bits
  20. Scan type                                : Progressive
  21. Bits/(Pixel*Frame)                       : 0.287
  22. Stream size                              : 7.46 GiB (94%)
  23. Writing library                          : x264 core 64 r977M 2042a19
  24. Encoding settings                        : cabac=1 / ref=6 / deblock=1:-3:-3 / analyse=0x3:0x133 / me=umh / subme=7 / psy_rd=1.0:0.0 / brdo=1 / mixed_ref=1 / me_range=24 / chroma_me=1 / trellis=2 / 8x8dct=1 / cqm=0 / deadzone=21,11 / chroma_qp_offset=-2 / threads=6 / nr=0 / decimate=1 / mbaff=0 / bframes=5 / b_pyramid=1 / b_adapt=2 / b_bias=0 / direct=3 / wpredb=1 / bime=1 / keyint=250 / keyint_min=25 / scenecut=40(pre) / rc=2pass / bitrate=10479 / ratetol=1.0 / qcomp=0.60 / qpmin=10 / qpmax=51 / qpstep=4 / cplxblur=20.0 / qblur=0.5 / ip_ratio=1.40 / pb_ratio=1.30 / aq=1:1.00
  25. Language                                 : English
  26. Default                                  : Yes
  27. Forced                                   : No

  28. Audio
  29. ID                                       : 2
  30. Format                                   : AC-3
  31. Format/Info                              : Audio Coding 3
  32. Commercial name                          : Dolby Digital
  33. Codec ID                                 : A_AC3
  34. Duration                                 : 1 h 44 min
  35. Bit rate mode                            : Constant
  36. Bit rate                                 : 448 kb/s
  37. Channel(s)                               : 6 channels
  38. Channel layout                           : L R C LFE Ls Rs
  39. Sampling rate                            : 48.0 kHz
  40. Frame rate                               : 31.250 FPS (1536 SPF)
  41. Compression mode                         : Lossy
  42. Stream size                              : 334 MiB (4%)
  43. Language                                 : English
  44. Service kind                             : Complete Main
  45. Default                                  : Yes
  46. Forced                                   : No

  47. Text
  48. ID                                       : 3
  49. Format                                   : UTF-8
  50. Codec ID                                 : S_TEXT/UTF8
  51. Codec ID/Info                            : UTF-8 Plain Text
  52. Language                                 : English
  53. Default                                  : No
  54. Forced                                   : No
复制代码








                                       
                                       

                                       
                                       
                                       




回复

使用道具 举报

懒得打字嘛,点击右侧快捷回复 【右侧内容,后台自定义】
您需要登录后才可以回帖 登录 | 立即加入

本版积分规则

Archiver|小黑屋| 蓝光电影网 |网站地图

Copyright © 2021 Comsenz Inc. Powered by 蓝光电影网

蓝光电影网

本站内容由用户自主分享和转载自互联网,转载目的在于传递更多信息,并不代表本网赞同其观点和对其真实性负责。

如有侵权、违反国家法律政策行为,请联系我们,我们会第一时间及时清除和处理!

举报反馈邮箱:[email protected]

快速回复 返回顶部 返回列表